<svg version="1.1" xmlns:xlink="http://www.w3.org/1999/xlink" xmlns="http://www.w3.org/2000/svg">
<metadata>
Created by FontForge 20201107 at Mon Oct 25 14:33:40 2021
 By Unknown
Copyright 2011 The Montserrat Project Authors (https://github.com/JulietaUla/Montserrat)
</metadata>
<defs>
<font id="Montserrat-Thin">
  

    <glyph d="M123 0v618q0 57 32.5 92t92.5 35q28 0 55.5 -9t45.5 -28l-14 -14q-16 16 -38.5 24t-47.5 8q-52 0 -79 -29t-27 -84v-99v-11v-503h-20zM23 498v19h295v-19h-295zM426 0v517h20v-517h-20zM436 660q-10 0 -18 8t-8 18q0 11 8 18.5t18 7.5q11 0 18.5 -7.5t7.5 -18.5
q0 -10 -7.5 -18t-18.5 -8z" unicode="fi" glyph-name="fi"></glyph>
    <glyph d="M123 0v618q0 57 32.5 92t92.5 35q28 0 55.5 -9t45.5 -28l-14 -14q-16 16 -38.5 24t-47.5 8q-52 0 -79 -29t-27 -84v-99v-11v-503h-20zM23 498v19h295v-19h-295zM426 0v742h20v-742h-20z" unicode="fl" glyph-name="fl"></glyph>
    <glyph d="M40 0v700h507v-700h-507zM120 70h347v560h-347v-560z" glyph-name=".notdef"></glyph>
    <glyph d="M9 0l325 700h20l325 -700h-23l-317 684h10l-317 -684h-23zM116 211l10 19h435l10 -19h-455z" unicode="A" glyph-name="A"></glyph>
    <glyph d="M9 0l325 700h20l325 -700h-23l-317 684h10l-317 -684h-23zM116 211l10 19h435l10 -19h-455zM299 757l140 110h40l-150 -110h-30z" unicode="Á" glyph-name="Aacute"></glyph>
    <glyph d="M9 0l325 700h20l325 -700h-23l-317 684h10l-317 -684h-23zM116 211l10 19h435l10 -19h-455zM344 754q-54 0 -92 30.5t-40 82.5h19q2 -43 34.5 -68.5t78.5 -25.5q47 0 79.5 25.5t33.5 68.5h19q-1 -52 -39.5 -82.5t-92.5 -30.5z" unicode="Ă" glyph-name="Abreve"></glyph>
    <glyph d="M9 0l325 700h20l325 -700h-23l-317 684h10l-317 -684h-23zM116 211l10 19h435l10 -19h-455zM344 754q-53 0 -89 21.5t-43 61.5h19q7 -31 37 -47.5t76 -16.5t76 16.5t37 47.5h19q-7 -40 -43 -61.5t-89 -21.5zM299 851l127 100h40l-137 -100h-30z" unicode="Ắ" glyph-name="uni1EAE"></glyph>
    <glyph d="M9 0l325 700h20l325 -700h-23l-317 684h10l-317 -684h-23zM116 211l10 19h435l10 -19h-455zM344 -176q-10 0 -18 8t-8 18q0 11 8 18.5t18 7.5q11 0 18.5 -7.5t7.5 -18.5q0 -10 -7.5 -18t-18.5 -8zM344 754q-54 0 -92 30.5t-40 82.5h19q2 -43 34.5 -68.5t78.5 -25.5
q47 0 79.5 25.5t33.5 68.5h19q-1 -52 -39.5 -82.5t-92.5 -30.5z" unicode="Ặ" glyph-name="uni1EB6"></glyph>
    <glyph d="M9 0l325 700h20l325 -700h-23l-317 684h10l-317 -684h-23zM116 211l10 19h435l10 -19h-455zM344 754q-53 0 -89 21.5t-43 61.5h19q7 -31 37 -47.5t76 -16.5t76 16.5t37 47.5h19q-7 -40 -43 -61.5t-89 -21.5zM359 851l-137 100h40l127 -100h-30z" unicode="Ằ" glyph-name="uni1EB0"></glyph>
    <glyph d="M9 0l325 700h20l325 -700h-23l-317 684h10l-317 -684h-23zM116 211l10 19h435l10 -19h-455zM344 754q-53 0 -89 21.5t-43 61.5h19q7 -31 37 -47.5t76 -16.5t76 16.5t37 47.5h19q-7 -40 -43 -61.5t-89 -21.5zM347 827l-10 15q21 10 33 24.5t12 31.5q0 16 -11.5 26
t-30.5 10q-24 0 -43 -13l-8 16q11 8 24.5 12t27.5 4q28 0 44 -15t16 -40q0 -22 -13.5 -40.5t-40.5 -30.5z" unicode="Ẳ" glyph-name="uni1EB2"></glyph>
    <glyph d="M9 0l325 700h20l325 -700h-23l-317 684h10l-317 -684h-23zM116 211l10 19h435l10 -19h-455zM344 754q-53 0 -89 21.5t-43 61.5h19q7 -31 37 -47.5t76 -16.5t76 16.5t37 47.5h19q-7 -40 -43 -61.5t-89 -21.5zM405 866q-26 0 -45.5 13.5t-37 27t-39.5 13.5
q-24 0 -38.5 -13.5t-15.5 -38.5h-19q1 32 21 51.5t52 19.5q27 0 46 -13.5t37 -27t39 -13.5q24 0 38.5 13t15.5 37h19q-1 -31 -21 -50t-52 -19z" unicode="Ẵ" glyph-name="uni1EB4"></glyph>
    <glyph d="M9 0l325 700h20l325 -700h-23l-317 684h10l-317 -684h-23zM116 211l10 19h435l10 -19h-455zM328 757l-122 110h27l114 -96h-6l114 96h27l-122 -110h-32z" unicode="Ǎ" glyph-name="uni01CD"></glyph>
    <glyph d="M9 0l325 700h20l325 -700h-23l-317 684h10l-317 -684h-23zM116 211l10 19h435l10 -19h-455zM206 757l122 110h32l122 -110h-27l-114 96h6l-114 -96h-27z" unicode="Â" glyph-name="Acircumflex"></glyph>
    <glyph d="M9 0l325 700h20l325 -700h-23l-317 684h10l-317 -684h-23zM116 211l10 19h435l10 -19h-455zM206 757l123 80h30l123 -80h-30l-113 67h10l-113 -67h-30zM419 832l127 100h40l-137 -100h-30z" unicode="Ấ" glyph-name="uni1EA4"></glyph>
    <glyph d="M9 0l325 700h20l325 -700h-23l-317 684h10l-317 -684h-23zM116 211l10 19h435l10 -19h-455zM344 -176q-10 0 -18 8t-8 18q0 11 8 18.5t18 7.5q11 0 18.5 -7.5t7.5 -18.5q0 -10 -7.5 -18t-18.5 -8zM206 757l122 110h32l122 -110h-27l-114 96h6l-114 -96h-27z" unicode="Ậ" glyph-name="uni1EAC"></glyph>
    <glyph d="M9 0l325 700h20l325 -700h-23l-317 684h10l-317 -684h-23zM116 211l10 19h435l10 -19h-455zM206 757l123 80h30l123 -80h-30l-113 67h10l-113 -67h-30zM479 832l-137 100h40l127 -100h-30z" unicode="Ầ" glyph-name="uni1EA6"></glyph>
    <glyph d="M9 0l325 700h20l325 -700h-23l-317 684h10l-317 -684h-23zM116 211l10 19h435l10 -19h-455zM206 757l123 80h30l123 -80h-30l-113 67h10l-113 -67h-30zM447 818l-10 15q21 10 33 24.5t12 31.5q0 16 -11.5 26t-30.5 10q-24 0 -43 -13l-8 16q11 8 24.5 12t27.5 4
q28 0 44 -15t16 -40q0 -22 -13.5 -40.5t-40.5 -30.5z" unicode="Ẩ" glyph-name="uni1EA8"></glyph>
    <glyph d="M9 0l325 700h20l325 -700h-23l-317 684h10l-317 -684h-23zM116 211l10 19h435l10 -19h-455zM206 757l123 80h30l123 -80h-30l-113 67h10l-113 -67h-30zM405 870q-26 0 -45.5 13.5t-37 27t-39.5 13.5q-24 0 -38.5 -13.5t-15.5 -38.5h-19q1 32 21 51.5t52 19.5
q27 0 46 -13.5t37 -27t39 -13.5q24 0 38.5 13t15.5 37h19q-1 -31 -21 -50t-52 -19z" unicode="Ẫ" glyph-name="uni1EAA"></glyph>
    <glyph d="M9 0l325 700h20l325 -700h-23l-317 684h10l-317 -684h-23zM116 211l10 19h435l10 -19h-455zM400 757l-118 110h34l111 -110h-27zM261 757l-118 110h34l111 -110h-27z" unicode="Ȁ" glyph-name="uni0200"></glyph>
    <glyph d="M9 0l325 700h20l325 -700h-23l-317 684h10l-317 -684h-23zM116 211l10 19h435l10 -19h-455zM426 791q-10 0 -18 8t-8 18q0 11 8 18.5t18 7.5q11 0 18.5 -7.5t7.5 -18.5q0 -10 -7.5 -18t-18.5 -8zM262 791q-10 0 -18 8t-8 18q0 11 8 18.5t18 7.5q11 0 18.5 -7.5t7.5 -18.5
q0 -10 -7.5 -18t-18.5 -8z" unicode="Ä" glyph-name="Adieresis"></glyph>
    <glyph d="M9 0l325 700h20l325 -700h-23l-317 684h10l-317 -684h-23zM116 211l10 19h435l10 -19h-455zM344 -176q-10 0 -18 8t-8 18q0 11 8 18.5t18 7.5q11 0 18.5 -7.5t7.5 -18.5q0 -10 -7.5 -18t-18.5 -8z" unicode="Ạ" glyph-name="uni1EA0"></glyph>
    <glyph d="M9 0l325 700h20l325 -700h-23l-317 684h10l-317 -684h-23zM116 211l10 19h435l10 -19h-455zM359 757l-150 110h40l140 -110h-30z" unicode="À" glyph-name="Agrave"></glyph>
    <glyph d="M9 0l325 700h20l325 -700h-23l-317 684h10l-317 -684h-23zM116 211l10 19h435l10 -19h-455zM346 753l-10 16q31 14 47 33t16 44q0 23 -16 38.5t-42 15.5q-33 0 -62 -19l-8 17q14 10 33 15.5t36 5.5q36 0 57.5 -19.5t21.5 -52.5q0 -30 -17.5 -53t-55.5 -41z" unicode="Ả" glyph-name="uni1EA2"></glyph>
    <glyph d="M9 0l325 700h20l325 -700h-23l-317 684h10l-317 -684h-23zM116 211l10 19h435l10 -19h-455zM212 757q2 53 40 83t92 30t92.5 -30t39.5 -83h-19q-1 44 -33.5 69t-79.5 25q-46 0 -78.5 -25t-34.5 -69h-19z" unicode="Ȃ" glyph-name="uni0202"></glyph>
    <glyph d="M9 0l325 700h20l325 -700h-23l-317 684h10l-317 -684h-23zM116 211l10 19h435l10 -19h-455zM208 802v20h272v-20h-272z" unicode="Ā" glyph-name="Amacron"></glyph>
    <glyph d="M9 0l325 700h20l325 -700h-23l-317 684h10l-317 -684h-23zM116 211l10 19h435l10 -19h-455zM623 -213q-39 0 -65 22t-26 61q0 21 10.5 45t40 50t86.5 51l10 -16q-55 -23 -82 -46.5t-36 -44.5t-9 -39q0 -32 20.5 -48t51.5 -16q17 0 33.5 6t28.5 17l11 -15
q-16 -14 -34.5 -20.5t-39.5 -6.5z" unicode="Ą" glyph-name="Aogonek"></glyph>
    <glyph d="M9 0l325 700h20l325 -700h-23l-317 684h10l-317 -684h-23zM116 211l10 19h435l10 -19h-455zM343 780q-27 0 -47.5 12.5t-32.5 33t-12 44.5q0 25 12 46t33 34t47 13q27 0 48 -13t33 -34t12 -46q0 -24 -12 -44.5t-33 -33t-48 -12.5zM343 799q32 0 52.5 21t20.5 50
q0 30 -20.5 52t-52.5 22q-31 0 -51.5 -21.5t-20.5 -52.5q0 -30 20 -50.5t52 -20.5z" unicode="Å" glyph-name="Aring"></glyph>
    <glyph d="M9 0l325 700h20l325 -700h-23l-317 684h10l-317 -684h-23zM116 211l10 19h435l10 -19h-455zM343 780q-27 0 -47.5 12.5t-32.5 33t-12 44.5q0 25 12 46t33 34t47 13q27 0 48 -13t33 -34t12 -46q0 -24 -12 -44.5t-33 -33t-48 -12.5zM343 799q32 0 52.5 21t20.5 50
q0 30 -20.5 52t-52.5 22q-31 0 -51.5 -21.5t-20.5 -52.5q0 -30 20 -50.5t52 -20.5zM411 928l-21 9l89 84l17 -13z" unicode="Ǻ" glyph-name="Aringacute"></glyph>
    <glyph d="M9 0l325 700h20l325 -700h-23l-317 684h10l-317 -684h-23zM116 211l10 19h435l10 -19h-455zM407 769q-21 0 -37.5 10.5t-30 24t-27.5 24t-31 10.5q-24 0 -38 -18t-16 -49h-19q2 39 21.5 62.5t51.5 23.5q21 0 37.5 -10.5t30 -24t27.5 -24t31 -10.5q24 0 38.5 18t15.5 47
h19q-1 -37 -21 -60.5t-52 -23.5z" unicode="Ã" glyph-name="Atilde"></glyph>
    <glyph d="M9 0l445 700h21v-19h-22l14 4l-435 -685h-23zM153 211l10 19h312v-19h-322zM485 365h391v-19h-391v19zM490 19h446v-19h-466v700h451v-19h-431v-662z" unicode="Æ" glyph-name="AE"></glyph>
    <glyph d="M9 0l445 700h21v-19h-22l14 4l-435 -685h-23zM153 211l10 19h312v-19h-322zM485 365h391v-19h-391v19zM490 19h446v-19h-466v700h451v-19h-431v-662zM435 757l140 110h40l-150 -110h-30z" unicode="Ǽ" glyph-name="AEacute"></glyph>
    <glyph d="M133 0v700h277q108 0 171.5 -44.5t63.5 -132.5q0 -58 -28 -96.5t-78 -57.5t-115 -19l17 13q81 0 134.5 -20.5t80.5 -60.5t27 -99q0 -88 -62.5 -135.5t-190.5 -47.5h-297zM153 19h281q112 0 170.5 39.5t58.5 124.5t-58.5 124t-170.5 39h-286v19h266q100 0 155.5 40
t55.5 118t-55.5 118t-155.5 40h-261v-662z" unicode="B" glyph-name="B"></glyph>
    <glyph d="M418 -3q-77 0 -142.5 26.5t-114 74.5t-75.5 112t-27 140t27 140t75.5 112t114 74.5t142.5 26.5q69 0 131 -22t107 -67l-12 -14q-48 46 -105 65t-121 19q-72 0 -134 -25.5t-108 -71t-71.5 -106t-25.5 -131.5t25.5 -131.5t71.5 -106t108 -71t134 -25.5q64 0 121 19.5
t105 65.5l12 -14q-45 -45 -107 -67.5t-131 -22.5z" unicode="C" glyph-name="C"></glyph>
    <glyph d="M418 -3q-77 0 -142.5 26.5t-114 74.5t-75.5 112t-27 140t27 140t75.5 112t114 74.5t142.5 26.5q69 0 131 -22t107 -67l-12 -14q-48 46 -105 65t-121 19q-72 0 -134 -25.5t-108 -71t-71.5 -106t-25.5 -131.5t25.5 -131.5t71.5 -106t108 -71t134 -25.5q64 0 121 19.5
t105 65.5l12 -14q-45 -45 -107 -67.5t-131 -22.5zM363 757l140 110h40l-150 -110h-30z" unicode="Ć" glyph-name="Cacute"></glyph>
    <glyph d="M418 -3q-77 0 -142.5 26.5t-114 74.5t-75.5 112t-27 140t27 140t75.5 112t114 74.5t142.5 26.5q69 0 131 -22t107 -67l-12 -14q-48 46 -105 65t-121 19q-72 0 -134 -25.5t-108 -71t-71.5 -106t-25.5 -131.5t25.5 -131.5t71.5 -106t108 -71t134 -25.5q64 0 121 19.5
t105 65.5l12 -14q-45 -45 -107 -67.5t-131 -22.5zM392 757l-122 110h27l114 -96h-6l114 96h27l-122 -110h-32z" unicode="Č" glyph-name="Ccaron"></glyph>
    <glyph d="M418 -3q-77 0 -142.5 26.5t-114 74.5t-75.5 112t-27 140t27 140t75.5 112t114 74.5t142.5 26.5q69 0 131 -22t107 -67l-12 -14q-48 46 -105 65t-121 19q-72 0 -134 -25.5t-108 -71t-71.5 -106t-25.5 -131.5t25.5 -131.5t71.5 -106t108 -71t134 -25.5q64 0 121 19.5
t105 65.5l12 -14q-45 -45 -107 -67.5t-131 -22.5zM392 -213q-21 0 -39 6.5t-35 20.5l11 15q12 -11 28.5 -17t33.5 -6q31 0 51.5 15.5t20.5 44.5q0 26 -18.5 43t-52.5 17h-16l22 79h19l-17 -61q38 -2 60.5 -23t22.5 -55q0 -36 -26 -57.5t-65 -21.5z" unicode="Ç" glyph-name="Ccedilla"></glyph>
    <glyph d="M418 -3q-77 0 -142.5 26.5t-114 74.5t-75.5 112t-27 140t27 140t75.5 112t114 74.5t142.5 26.5q69 0 131 -22t107 -67l-12 -14q-48 46 -105 65t-121 19q-72 0 -134 -25.5t-108 -71t-71.5 -106t-25.5 -131.5t25.5 -131.5t71.5 -106t108 -71t134 -25.5q64 0 121 19.5
t105 65.5l12 -14q-45 -45 -107 -67.5t-131 -22.5zM392 -213q-21 0 -39 6.5t-35 20.5l11 15q12 -11 28.5 -17t33.5 -6q31 0 51.5 15.5t20.5 44.5q0 26 -18.5 43t-52.5 17h-16l22 79h19l-17 -61q38 -2 60.5 -23t22.5 -55q0 -36 -26 -57.5t-65 -21.5zM363 757l140 110h40
l-150 -110h-30z" unicode="Ḉ" glyph-name="uni1E08"></glyph>
    <glyph d="M418 -3q-77 0 -142.5 26.5t-114 74.5t-75.5 112t-27 140t27 140t75.5 112t114 74.5t142.5 26.5q69 0 131 -22t107 -67l-12 -14q-48 46 -105 65t-121 19q-72 0 -134 -25.5t-108 -71t-71.5 -106t-25.5 -131.5t25.5 -131.5t71.5 -106t108 -71t134 -25.5q64 0 121 19.5
t105 65.5l12 -14q-45 -45 -107 -67.5t-131 -22.5zM270 757l122 110h32l122 -110h-27l-114 96h6l-114 -96h-27z" unicode="Ĉ" glyph-name="Ccircumflex"></glyph>
    <glyph d="M418 -3q-77 0 -142.5 26.5t-114 74.5t-75.5 112t-27 140t27 140t75.5 112t114 74.5t142.5 26.5q69 0 131 -22t107 -67l-12 -14q-48 46 -105 65t-121 19q-72 0 -134 -25.5t-108 -71t-71.5 -106t-25.5 -131.5t25.5 -131.5t71.5 -106t108 -71t134 -25.5q64 0 121 19.5
t105 65.5l12 -14q-45 -45 -107 -67.5t-131 -22.5zM408 791q-10 0 -18 8t-8 18q0 11 8 18.5t18 7.5q11 0 18.5 -7.5t7.5 -18.5q0 -10 -7.5 -18t-18.5 -8z" unicode="Ċ" glyph-name="Cdotaccent"></glyph>
    <glyph d="M133 0v700h265q111 0 194 -45.5t129 -124.5t46 -180t-46 -180t-129 -124.5t-194 -45.5h-265zM153 19h243q107 0 186 43t122 117.5t43 170.5t-43 170.5t-122 117.5t-186 43h-243v-662z" unicode="D" glyph-name="D"></glyph>
    <glyph d="M133 0v700h265q111 0 194 -45.5t129 -124.5t46 -180t-46 -180t-129 -124.5t-194 -45.5h-265zM153 19h243q107 0 186 43t122 117.5t43 170.5t-43 170.5t-122 117.5t-186 43h-243v-662zM861 0v15l517 673l1 -7h-513v19h535v-15l-517 -673l-1 7h528v-19h-550zM1120 757
l-122 110h27l114 -96h-6l114 96h27l-122 -110h-32z" unicode="Ǆ" glyph-name="uni01C4"></glyph>
    <glyph d="M133 0v700h265q111 0 194 -45.5t129 -124.5t46 -180t-46 -180t-129 -124.5t-194 -45.5h-265zM153 19h243q107 0 186 43t122 117.5t43 170.5t-43 170.5t-122 117.5t-186 43h-243v-662zM20 346v19h360v-19h-360z" unicode="Ð" glyph-name="Eth"></glyph>
    <glyph d="M133 0v700h265q111 0 194 -45.5t129 -124.5t46 -180t-46 -180t-129 -124.5t-194 -45.5h-265zM153 19h243q107 0 186 43t122 117.5t43 170.5t-43 170.5t-122 117.5t-186 43h-243v-662zM375 756l-122 110h27l114 -96h-6l114 96h27l-122 -110h-32z" unicode="Ď" glyph-name="Dcaron"></glyph>
    <glyph d="M133 0v700h265q111 0 194 -45.5t129 -124.5t46 -180t-46 -180t-129 -124.5t-194 -45.5h-265zM153 19h243q107 0 186 43t122 117.5t43 170.5t-43 170.5t-122 117.5t-186 43h-243v-662zM20 346v19h360v-19h-360z" unicode="Đ" glyph-name="Dcroat"></glyph>
    <glyph d="M133 0v700h265q111 0 194 -45.5t129 -124.5t46 -180t-46 -180t-129 -124.5t-194 -45.5h-265zM153 19h243q107 0 186 43t122 117.5t43 170.5t-43 170.5t-122 117.5t-186 43h-243v-662zM396 -176q-10 0 -18 8t-8 18q0 11 8 18.5t18 7.5q11 0 18.5 -7.5t7.5 -18.5
q0 -10 -7.5 -18t-18.5 -8z" unicode="Ḍ" glyph-name="uni1E0C"></glyph>
    <glyph d="M133 0v700h265q111 0 194 -45.5t129 -124.5t46 -180t-46 -180t-129 -124.5t-194 -45.5h-265zM153 19h243q107 0 186 43t122 117.5t43 170.5t-43 170.5t-122 117.5t-186 43h-243v-662zM260 -160v20h272v-20h-272z" unicode="Ḏ" glyph-name="uni1E0E"></glyph>
    <glyph d="M133 0v700h265q111 0 194 -45.5t129 -124.5t46 -180t-46 -180t-129 -124.5t-194 -45.5h-265zM153 19h243q107 0 186 43t122 117.5t43 170.5t-43 170.5t-122 117.5t-186 43h-243v-662zM872 0v15l369 489l8 -6h-372v19h387v-15l-369 -489l-12 6h386v-19h-397zM1055 607
l-122 110h27l114 -96h-6l114 96h27l-122 -110h-32z" unicode="ǅ" glyph-name="uni01C5"></glyph>
    <glyph d="M148 365h391v-19h-391v19zM153 19h446v-19h-466v700h451v-19h-431v-662z" unicode="E" glyph-name="E"></glyph>
    <glyph d="M148 365h391v-19h-391v19zM153 19h446v-19h-466v700h451v-19h-431v-662zM314 757l140 110h40l-150 -110h-30z" unicode="É" glyph-name="Eacute"></glyph>
    <glyph d="M148 365h391v-19h-391v19zM153 19h446v-19h-466v700h451v-19h-431v-662zM359 754q-54 0 -92 30.5t-40 82.5h19q2 -43 34.5 -68.5t78.5 -25.5q47 0 79.5 25.5t33.5 68.5h19q-1 -52 -39.5 -82.5t-92.5 -30.5z" unicode="Ĕ" glyph-name="Ebreve"></glyph>
    <glyph d="M148 365h391v-19h-391v19zM153 19h446v-19h-466v700h451v-19h-431v-662zM343 757l-122 110h27l114 -96h-6l114 96h27l-122 -110h-32z" unicode="Ě" glyph-name="Ecaron"></glyph>
    <glyph d="M148 365h391v-19h-391v19zM153 19h446v-19h-466v700h451v-19h-431v-662zM360 -213q-21 0 -39 6.5t-35 20.5l11 15q12 -11 28.5 -17t33.5 -6q31 0 51.5 15.5t20.5 44.5q0 26 -18.5 43t-52.5 17h-16l22 79h19l-17 -61q38 -2 60.5 -23t22.5 -55q0 -36 -26 -57.5t-65 -21.5z
M359 754q-54 0 -92 30.5t-40 82.5h19q2 -43 34.5 -68.5t78.5 -25.5q47 0 79.5 25.5t33.5 68.5h19q-1 -52 -39.5 -82.5t-92.5 -30.5z" unicode="Ḝ" glyph-name="uni1E1C"></glyph>
    <glyph d="M148 365h391v-19h-391v19zM153 19h446v-19h-466v700h451v-19h-431v-662zM221 757l122 110h32l122 -110h-27l-114 96h6l-114 -96h-27z" unicode="Ê" glyph-name="Ecircumflex"></glyph>
    <glyph d="M148 365h391v-19h-391v19zM153 19h446v-19h-466v700h451v-19h-431v-662zM221 757l123 80h30l123 -80h-30l-113 67h10l-113 -67h-30zM434 832l127 100h40l-137 -100h-30z" unicode="Ế" glyph-name="uni1EBE"></glyph>
    <glyph d="M148 365h391v-19h-391v19zM153 19h446v-19h-466v700h451v-19h-431v-662zM376 -176q-10 0 -18 8t-8 18q0 11 8 18.5t18 7.5q11 0 18.5 -7.5t7.5 -18.5q0 -10 -7.5 -18t-18.5 -8zM221 757l122 110h32l122 -110h-27l-114 96h6l-114 -96h-27z" unicode="Ệ" glyph-name="uni1EC6"></glyph>
    <glyph d="M148 365h391v-19h-391v19zM153 19h446v-19h-466v700h451v-19h-431v-662zM221 757l123 80h30l123 -80h-30l-113 67h10l-113 -67h-30zM494 832l-137 100h40l127 -100h-30z" unicode="Ề" glyph-name="uni1EC0"></glyph>
    <glyph d="M148 365h391v-19h-391v19zM153 19h446v-19h-466v700h451v-19h-431v-662zM221 757l123 80h30l123 -80h-30l-113 67h10l-113 -67h-30zM462 818l-10 15q21 10 33 24.5t12 31.5q0 16 -11.5 26t-30.5 10q-24 0 -43 -13l-8 16q11 8 24.5 12t27.5 4q28 0 44 -15t16 -40
q0 -22 -13.5 -40.5t-40.5 -30.5z" unicode="Ể" glyph-name="uni1EC2"></glyph>
    <glyph d="M148 365h391v-19h-391v19zM153 19h446v-19h-466v700h451v-19h-431v-662zM221 757l123 80h30l123 -80h-30l-113 67h10l-113 -67h-30zM420 870q-26 0 -45.5 13.5t-37 27t-39.5 13.5q-24 0 -38.5 -13.5t-15.5 -38.5h-19q1 32 21 51.5t52 19.5q27 0 46 -13.5t37 -27t39 -13.5
q24 0 38.5 13t15.5 37h19q-1 -31 -21 -50t-52 -19z" unicode="Ễ" glyph-name="uni1EC4"></glyph>
    <glyph d="M148 365h391v-19h-391v19zM153 19h446v-19h-466v700h451v-19h-431v-662zM415 757l-118 110h34l111 -110h-27zM276 757l-118 110h34l111 -110h-27z" unicode="Ȅ" glyph-name="uni0204"></glyph>
    <glyph d="M148 365h391v-19h-391v19zM153 19h446v-19h-466v700h451v-19h-431v-662zM441 791q-10 0 -18 8t-8 18q0 11 8 18.5t18 7.5q11 0 18.5 -7.5t7.5 -18.5q0 -10 -7.5 -18t-18.5 -8zM277 791q-10 0 -18 8t-8 18q0 11 8 18.5t18 7.5q11 0 18.5 -7.5t7.5 -18.5q0 -10 -7.5 -18
t-18.5 -8z" unicode="Ë" glyph-name="Edieresis"></glyph>
    <glyph d="M148 365h391v-19h-391v19zM153 19h446v-19h-466v700h451v-19h-431v-662zM359 791q-10 0 -18 8t-8 18q0 11 8 18.5t18 7.5q11 0 18.5 -7.5t7.5 -18.5q0 -10 -7.5 -18t-18.5 -8z" unicode="Ė" glyph-name="Edotaccent"></glyph>
    <glyph d="M148 365h391v-19h-391v19zM153 19h446v-19h-466v700h451v-19h-431v-662zM376 -176q-10 0 -18 8t-8 18q0 11 8 18.5t18 7.5q11 0 18.5 -7.5t7.5 -18.5q0 -10 -7.5 -18t-18.5 -8z" unicode="Ẹ" glyph-name="uni1EB8"></glyph>
    <glyph d="M148 365h391v-19h-391v19zM153 19h446v-19h-466v700h451v-19h-431v-662zM374 757l-150 110h40l140 -110h-30z" unicode="È" glyph-name="Egrave"></glyph>
    <glyph d="M148 365h391v-19h-391v19zM153 19h446v-19h-466v700h451v-19h-431v-662zM361 753l-10 16q31 14 47 33t16 44q0 23 -16 38.5t-42 15.5q-33 0 -62 -19l-8 17q14 10 33 15.5t36 5.5q36 0 57.5 -19.5t21.5 -52.5q0 -30 -17.5 -53t-55.5 -41z" unicode="Ẻ" glyph-name="uni1EBA"></glyph>
    <glyph d="M148 365h391v-19h-391v19zM153 19h446v-19h-466v700h451v-19h-431v-662zM227 757q2 53 40 83t92 30t92.5 -30t39.5 -83h-19q-1 44 -33.5 69t-79.5 25q-46 0 -78.5 -25t-34.5 -69h-19z" unicode="Ȇ" glyph-name="uni0206"></glyph>
    <glyph d="M148 365h391v-19h-391v19zM153 19h446v-19h-466v700h451v-19h-431v-662zM223 802v20h272v-20h-272z" unicode="Ē" glyph-name="Emacron"></glyph>
    <glyph d="M148 365h391v-19h-391v19zM153 19h446v-19h-466v700h451v-19h-431v-662zM223 787v20h272v-20h-272zM314 870l127 100h40l-137 -100h-30z" unicode="Ḗ" glyph-name="uni1E16"></glyph>
    <glyph d="M148 365h391v-19h-391v19zM153 19h446v-19h-466v700h451v-19h-431v-662zM223 787v20h272v-20h-272zM374 870l-137 100h40l127 -100h-30z" unicode="Ḕ" glyph-name="uni1E14"></glyph>
    <glyph d="M148 365h391v-19h-391v19zM153 19h446v-19h-466v700h451v-19h-431v-662zM543 -213q-39 0 -65 22t-26 61q0 21 10.5 45t40 50t86.5 51l10 -16q-55 -23 -82 -46.5t-36 -44.5t-9 -39q0 -32 20.5 -48t51.5 -16q17 0 33.5 6t28.5 17l11 -15q-16 -14 -34.5 -20.5t-39.5 -6.5z" unicode="Ę" glyph-name="Eogonek"></glyph>
    <glyph d="M148 365h391v-19h-391v19zM153 19h446v-19h-466v700h451v-19h-431v-662zM422 769q-21 0 -37.5 10.5t-30 24t-27.5 24t-31 10.5q-24 0 -38 -18t-16 -49h-19q2 39 21.5 62.5t51.5 23.5q21 0 37.5 -10.5t30 -24t27.5 -24t31 -10.5q24 0 38.5 18t15.5 47h19q-1 -37 -21 -60.5
t-52 -23.5z" unicode="Ẽ" glyph-name="uni1EBC"></glyph>
    <glyph d="M289 -3q-85 0 -153.5 28t-101.5 71l13 13q32 -39 95.5 -66t147.5 -27q109 0 166 48t57 128t-58.5 128t-180.5 48h-37v15l246 305l2 -7h-428v19h448v-15l-246 -305l-2 7h16q88 0 145.5 -24.5t86 -68.5t28.5 -102t-28 -102t-82.5 -68.5t-133.5 -24.5z" unicode="Ʒ" glyph-name="uni01B7"></glyph>
    <glyph d="M289 -3q-85 0 -153.5 28t-101.5 71l13 13q32 -39 95.5 -66t147.5 -27q109 0 166 48t57 128t-58.5 128t-180.5 48h-37v15l246 305l2 -7h-428v19h448v-15l-246 -305l-2 7h16q88 0 145.5 -24.5t86 -68.5t28.5 -102t-28 -102t-82.5 -68.5t-133.5 -24.5zM271 757l-122 110h27
l114 -96h-6l114 96h27l-122 -110h-32z" unicode="Ǯ" glyph-name="uni01EE"></glyph>
    <glyph d="M148 345h391v-19h-391v19zM153 0h-20v700h451v-19h-431v-681z" unicode="F" glyph-name="F"></glyph>
    <glyph d="M421 -3q-78 0 -144 26.5t-115 74.5t-76 112t-27 140t27 140t76 112t115 74.5t144 26.5q71 0 133.5 -22t107.5 -67l-12 -14q-48 46 -105.5 65t-123.5 19q-73 0 -135.5 -25.5t-109 -71t-72 -106t-25.5 -131.5t25.5 -131.5t72 -106t109 -71t135.5 -25.5q66 0 124.5 20
t104.5 66l12 -15q-45 -45 -107.5 -67.5t-133.5 -22.5zM643 87v256h19v-256h-19z" unicode="G" glyph-name="G"></glyph>
    <glyph d="M421 -3q-78 0 -144 26.5t-115 74.5t-76 112t-27 140t27 140t76 112t115 74.5t144 26.5q71 0 133.5 -22t107.5 -67l-12 -14q-48 46 -105.5 65t-123.5 19q-73 0 -135.5 -25.5t-109 -71t-72 -106t-25.5 -131.5t25.5 -131.5t72 -106t109 -71t135.5 -25.5q66 0 124.5 20
t104.5 66l12 -15q-45 -45 -107.5 -67.5t-133.5 -22.5zM643 87v256h19v-256h-19zM402 753q-54 0 -92 30.5t-40 82.5h19q2 -43 34.5 -68.5t78.5 -25.5q47 0 79.5 25.5t33.5 68.5h19q-1 -52 -39.5 -82.5t-92.5 -30.5z" unicode="Ğ" glyph-name="Gbreve"></glyph>
    <glyph d="M421 -3q-78 0 -144 26.5t-115 74.5t-76 112t-27 140t27 140t76 112t115 74.5t144 26.5q71 0 133.5 -22t107.5 -67l-12 -14q-48 46 -105.5 65t-123.5 19q-73 0 -135.5 -25.5t-109 -71t-72 -106t-25.5 -131.5t25.5 -131.5t72 -106t109 -71t135.5 -25.5q66 0 124.5 20
t104.5 66l12 -15q-45 -45 -107.5 -67.5t-133.5 -22.5zM643 87v256h19v-256h-19zM386 756l-122 110h27l114 -96h-6l114 96h27l-122 -110h-32z" unicode="Ǧ" glyph-name="Gcaron"></glyph>
    <glyph d="M421 -3q-78 0 -144 26.5t-115 74.5t-76 112t-27 140t27 140t76 112t115 74.5t144 26.5q71 0 133.5 -22t107.5 -67l-12 -14q-48 46 -105.5 65t-123.5 19q-73 0 -135.5 -25.5t-109 -71t-72 -106t-25.5 -131.5t25.5 -131.5t72 -106t109 -71t135.5 -25.5q66 0 124.5 20
t104.5 66l12 -15q-45 -45 -107.5 -67.5t-133.5 -22.5zM643 87v256h19v-256h-19zM264 756l122 110h32l122 -110h-27l-114 96h6l-114 -96h-27z" unicode="Ĝ" glyph-name="Gcircumflex"></glyph>
    <glyph d="M421 -3q-78 0 -144 26.5t-115 74.5t-76 112t-27 140t27 140t76 112t115 74.5t144 26.5q71 0 133.5 -22t107.5 -67l-12 -14q-48 46 -105.5 65t-123.5 19q-73 0 -135.5 -25.5t-109 -71t-72 -106t-25.5 -131.5t25.5 -131.5t72 -106t109 -71t135.5 -25.5q66 0 124.5 20
t104.5 66l12 -15q-45 -45 -107.5 -67.5t-133.5 -22.5zM643 87v256h19v-256h-19zM381 -259l20 94l1 -11q-10 0 -18 8t-8 18q0 11 7.5 18.5t18.5 7.5q12 0 19 -8.5t7 -17.5q0 -8 -2 -16l-4 -16l-23 -77h-18z" unicode="Ģ" glyph-name="uni0122"></glyph>
    <glyph d="M421 -3q-78 0 -144 26.5t-115 74.5t-76 112t-27 140t27 140t76 112t115 74.5t144 26.5q71 0 133.5 -22t107.5 -67l-12 -14q-48 46 -105.5 65t-123.5 19q-73 0 -135.5 -25.5t-109 -71t-72 -106t-25.5 -131.5t25.5 -131.5t72 -106t109 -71t135.5 -25.5q66 0 124.5 20
t104.5 66l12 -15q-45 -45 -107.5 -67.5t-133.5 -22.5zM643 87v256h19v-256h-19zM402 790q-10 0 -18 8t-8 18q0 11 8 18.5t18 7.5q11 0 18.5 -7.5t7.5 -18.5q0 -10 -7.5 -18t-18.5 -8z" unicode="Ġ" glyph-name="Gdotaccent"></glyph>
    <glyph d="M421 -3q-78 0 -144 26.5t-115 74.5t-76 112t-27 140t27 140t76 112t115 74.5t144 26.5q71 0 133.5 -22t107.5 -67l-12 -14q-48 46 -105.5 65t-123.5 19q-73 0 -135.5 -25.5t-109 -71t-72 -106t-25.5 -131.5t25.5 -131.5t72 -106t109 -71t135.5 -25.5q66 0 124.5 20
t104.5 66l12 -15q-45 -45 -107.5 -67.5t-133.5 -22.5zM643 87v256h19v-256h-19zM266 801v20h272v-20h-272z" unicode="Ḡ" glyph-name="uni1E20"></glyph>
    <glyph d="M420 224v19h360v-19h-360zM421 -3q-78 0 -144 26.5t-115 74.5t-76 112t-27 140t27 140t76 112t115 74.5t144 26.5q71 0 133.5 -22t107.5 -67l-12 -14q-48 46 -105.5 65t-123.5 19q-73 0 -135.5 -25.5t-109 -71t-72 -106t-25.5 -131.5t25.5 -131.5t72 -106t109 -71
t135.5 -25.5q66 0 124.5 20t104.5 66l12 -15q-45 -45 -107.5 -67.5t-133.5 -22.5zM643 87v256h19v-256h-19z" unicode="Ǥ" glyph-name="uni01E4"></glyph>
    <glyph d="M663 700h20v-700h-20v700zM153 0h-20v700h20v-700zM668 346h-520v19h520v-19z" unicode="H" glyph-name="H"></glyph>
    <glyph d="M663 700h20v-700h-20v700zM153 0h-20v700h20v-700zM668 346h-520v19h520v-19zM20 529v19h776v-19h-776z" unicode="Ħ" glyph-name="Hbar"></glyph>
    <glyph d="M663 700h20v-700h-20v700zM153 0h-20v700h20v-700zM668 346h-520v19h520v-19zM408 -198q-54 0 -92 29t-40 79h19q2 -41 34.5 -65t78.5 -24q47 0 79.5 24t33.5 65h19q-1 -50 -39.5 -79t-92.5 -29z" unicode="Ḫ" glyph-name="uni1E2A"></glyph>
    <glyph d="M663 700h20v-700h-20v700zM153 0h-20v700h20v-700zM668 346h-520v19h520v-19zM392 757l-122 110h27l114 -96h-6l114 96h27l-122 -110h-32z" unicode="Ȟ" glyph-name="uni021E"></glyph>
    <glyph d="M663 700h20v-700h-20v700zM153 0h-20v700h20v-700zM668 346h-520v19h520v-19zM270 757l122 110h32l122 -110h-27l-114 96h6l-114 -96h-27z" unicode="Ĥ" glyph-name="Hcircumflex"></glyph>
    <glyph d="M663 700h20v-700h-20v700zM153 0h-20v700h20v-700zM668 346h-520v19h520v-19zM408 -176q-10 0 -18 8t-8 18q0 11 8 18.5t18 7.5q11 0 18.5 -7.5t7.5 -18.5q0 -10 -7.5 -18t-18.5 -8z" unicode="Ḥ" glyph-name="uni1E24"></glyph>
    <glyph d="M133 0v700h20v-700h-20z" unicode="I" glyph-name="I"></glyph>
    <glyph d="M327 -3q-60 0 -113 18.5t-94 46.5l12 16q40 -29 90 -45.5t106 -16.5q111 0 175 69t64 209v406h20v-407q0 -99 -32.5 -164.5t-90.5 -98.5t-137 -33zM127 290v410h20v-410h-20z" unicode="Ĳ" glyph-name="IJ"></glyph>
    <glyph d="M133 0v700h20v-700h-20zM98 757l140 110h40l-150 -110h-30z" unicode="Í" glyph-name="Iacute"></glyph>
    <glyph d="M133 0v700h20v-700h-20zM143 754q-54 0 -92 30.5t-40 82.5h19q2 -43 34.5 -68.5t78.5 -25.5q47 0 79.5 25.5t33.5 68.5h19q-1 -52 -39.5 -82.5t-92.5 -30.5z" unicode="Ĭ" glyph-name="Ibreve"></glyph>
    <glyph d="M133 0v700h20v-700h-20zM5 757l122 110h32l122 -110h-27l-114 96h6l-114 -96h-27z" unicode="Î" glyph-name="Icircumflex"></glyph>
    <glyph d="M133 0v700h20v-700h-20zM199 757l-118 110h34l111 -110h-27zM60 757l-118 110h34l111 -110h-27z" unicode="Ȉ" glyph-name="uni0208"></glyph>
    <glyph d="M133 0v700h20v-700h-20zM225 791q-10 0 -18 8t-8 18q0 11 8 18.5t18 7.5q11 0 18.5 -7.5t7.5 -18.5q0 -10 -7.5 -18t-18.5 -8zM61 791q-10 0 -18 8t-8 18q0 11 8 18.5t18 7.5q11 0 18.5 -7.5t7.5 -18.5q0 -10 -7.5 -18t-18.5 -8z" unicode="Ï" glyph-name="Idieresis"></glyph>
    <glyph d="M133 0v700h20v-700h-20zM225 791q-10 0 -18 8t-8 18q0 11 8 18.5t18 7.5q11 0 18.5 -7.5t7.5 -18.5q0 -10 -7.5 -18t-18.5 -8zM61 791q-10 0 -18 8t-8 18q0 11 8 18.5t18 7.5q11 0 18.5 -7.5t7.5 -18.5q0 -10 -7.5 -18t-18.5 -8zM98 870l127 100h40l-137 -100h-30z" unicode="Ḯ" glyph-name="uni1E2E"></glyph>
    <glyph d="M133 0v700h20v-700h-20zM143 791q-10 0 -18 8t-8 18q0 11 8 18.5t18 7.5q11 0 18.5 -7.5t7.5 -18.5q0 -10 -7.5 -18t-18.5 -8z" unicode="İ" glyph-name="Idotaccent"></glyph>
    <glyph d="M133 0v700h20v-700h-20zM143 -176q-10 0 -18 8t-8 18q0 11 8 18.5t18 7.5q11 0 18.5 -7.5t7.5 -18.5q0 -10 -7.5 -18t-18.5 -8z" unicode="Ị" glyph-name="uni1ECA"></glyph>
    <glyph d="M133 0v700h20v-700h-20zM158 757l-150 110h40l140 -110h-30z" unicode="Ì" glyph-name="Igrave"></glyph>
    <glyph d="M133 0v700h20v-700h-20zM145 753l-10 16q31 14 47 33t16 44q0 23 -16 38.5t-42 15.5q-33 0 -62 -19l-8 17q14 10 33 15.5t36 5.5q36 0 57.5 -19.5t21.5 -52.5q0 -30 -17.5 -53t-55.5 -41z" unicode="Ỉ" glyph-name="uni1EC8"></glyph>
    <glyph d="M133 0v700h20v-700h-20zM11 757q2 53 40 83t92 30t92.5 -30t39.5 -83h-19q-1 44 -33.5 69t-79.5 25q-46 0 -78.5 -25t-34.5 -69h-19z" unicode="Ȋ" glyph-name="uni020A"></glyph>
    <glyph d="M133 0v700h20v-700h-20zM32 803v20h222v-20h-222z" unicode="Ī" glyph-name="Imacron"></glyph>
    <glyph d="M133 0v700h20v-700h-20zM145 -213q-30 0 -48.5 22t-18.5 56q0 28 12 68t55 84l8 -17q-39 -44 -47 -76.5t-8 -57.5q0 -30 14 -45.5t33 -15.5q13 0 23 5.5t17 14.5l11 -14q-19 -24 -51 -24z" unicode="Į" glyph-name="Iogonek"></glyph>
    <glyph d="M133 0v700h20v-700h-20zM206 769q-21 0 -37.5 10.5t-30 24t-27.5 24t-31 10.5q-24 0 -38 -18t-16 -49h-19q2 39 21.5 62.5t51.5 23.5q21 0 37.5 -10.5t30 -24t27.5 -24t31 -10.5q24 0 38.5 18t15.5 47h19q-1 -37 -21 -60.5t-52 -23.5z" unicode="Ĩ" glyph-name="Itilde"></glyph>
    <glyph d="M178 -3q-53 0 -99.5 26.5t-74.5 72.5l14 12q29 -44 70.5 -68t90.5 -24q151 0 151 180v485h-262v19h282v-506q0 -98 -43 -147.5t-129 -49.5z" unicode="J" glyph-name="J"></glyph>
    <glyph d="M178 -3q-53 0 -99.5 26.5t-74.5 72.5l14 12q29 -44 70.5 -68t90.5 -24q151 0 151 180v485h-262v19h282v-506q0 -98 -43 -147.5t-129 -49.5zM71 757l122 110h32l122 -110h-27l-114 96h6l-114 -96h-27z" unicode="Ĵ" glyph-name="Jcircumflex"></glyph>
    <glyph d="M149 182v27l478 491h27l-314 -323l-12 -11zM133 0v700h20v-700h-20zM650 0l-333 377l15 13l345 -390h-27z" unicode="K" glyph-name="K"></glyph>
    <glyph d="M149 182v27l478 491h27l-314 -323l-12 -11zM133 0v700h20v-700h-20zM650 0l-333 377l15 13l345 -390h-27zM354 757l-122 110h27l114 -96h-6l114 96h27l-122 -110h-32z" unicode="Ǩ" glyph-name="uni01E8"></glyph>
    <glyph d="M149 182v27l478 491h27l-314 -323l-12 -11zM133 0v700h20v-700h-20zM650 0l-333 377l15 13l345 -390h-27zM349 -259l20 94l1 -11q-10 0 -18 8t-8 18q0 11 7.5 18.5t18.5 7.5q12 0 19 -8.5t7 -17.5q0 -8 -2 -16l-4 -16l-23 -77h-18z" unicode="Ķ" glyph-name="uni0136"></glyph>
    <glyph d="M133 0v700h20v-681h417v-19h-437z" unicode="L" glyph-name="L"></glyph>
    <glyph d="M133 0v700h20v-681h417v-19h-437zM758 -3q-53 0 -99.5 26.5t-74.5 72.5l14 12q29 -44 70.5 -68t90.5 -24q151 0 151 180v485h-262v19h282v-506q0 -98 -43 -147.5t-129 -49.5z" unicode="Ǉ" glyph-name="uni01C7"></glyph>
    <glyph d="M133 0v700h20v-681h417v-19h-437zM98 757l140 110h40l-150 -110h-30z" unicode="Ĺ" glyph-name="Lacute"></glyph>
    <glyph d="M133 0v700h20v-681h417v-19h-437zM446 540v180h20l-2 -180h-18z" unicode="Ľ" glyph-name="Lcaron"></glyph>
    <glyph d="M133 0v700h20v-681h417v-19h-437zM341 -259l20 94l1 -11q-10 0 -18 8t-8 18q0 11 7.5 18.5t18.5 7.5q12 0 19 -8.5t7 -17.5q0 -8 -2 -16l-4 -16l-23 -77h-18z" unicode="Ļ" glyph-name="uni013B"></glyph>
    <glyph d="M133 0v700h20v-681h417v-19h-437zM433 334q-10 0 -18 8t-8 18q0 11 8 18.5t18 7.5q11 0 18.5 -7.5t7.5 -18.5q0 -10 -7.5 -18t-18.5 -8z" unicode="Ŀ" glyph-name="Ldot"></glyph>
    <glyph d="M133 0v700h20v-681h417v-19h-437zM362 -176q-10 0 -18 8t-8 18q0 11 8 18.5t18 7.5q11 0 18.5 -7.5t7.5 -18.5q0 -10 -7.5 -18t-18.5 -8z" unicode="Ḷ" glyph-name="uni1E36"></glyph>
    <glyph d="M133 0v700h20v-681h417v-19h-437zM598 -197q-30 0 -58 9t-46 28l14 14q34 -32 89 -32q50 0 76.5 29t26.5 84v582h20v-587q0 -57 -31.5 -92t-90.5 -35zM710 660q-10 0 -18 8t-8 18q0 11 8 18.5t18 7.5q11 0 18.5 -7.5t7.5 -18.5q0 -10 -7.5 -18t-18.5 -8z" unicode="ǈ" glyph-name="uni01C8"></glyph>
    <glyph d="M133 0v700h20v-681h417v-19h-437zM226 -160v20h272v-20h-272z" unicode="Ḻ" glyph-name="uni1E3A"></glyph>
    <glyph d="M133 0v700h20v-681h417v-19h-437zM52 282l-11 14l243 179l11 -14z" unicode="Ł" glyph-name="Lslash"></glyph>
    <glyph d="M133 0v700h17l333 -582h-9l332 582h17v-700h-20v671h8l-327 -572h-12l-328 572h9v-671h-20z" unicode="M" glyph-name="M"></glyph>
    <glyph d="M133 0v700h17l333 -582h-9l332 582h17v-700h-20v671h8l-327 -572h-12l-328 572h9v-671h-20zM478 -176q-10 0 -18 8t-8 18q0 11 8 18.5t18 7.5q11 0 18.5 -7.5t7.5 -18.5q0 -10 -7.5 -18t-18.5 -8z" unicode="Ṃ" glyph-name="uni1E42"></glyph>
    <glyph d="M133 0v700h17l524 -677h-11v677h20v-700h-17l-524 677h11v-677h-20z" unicode="N" glyph-name="N"></glyph>
    <glyph d="M133 0v700h17l524 -677h-11v677h20v-700h-17l-524 677h11v-677h-20zM994 -3q-53 0 -99.5 26.5t-74.5 72.5l14 12q29 -44 70.5 -68t90.5 -24q151 0 151 180v485h-262v19h282v-506q0 -98 -43 -147.5t-129 -49.5z" unicode="Ǌ" glyph-name="uni01CA"></glyph>
    <glyph d="M133 0v700h17l524 -677h-11v677h20v-700h-17l-524 677h11v-677h-20zM363 757l140 110h40l-150 -110h-30z" unicode="Ń" glyph-name="Nacute"></glyph>
    <glyph d="M133 0v700h17l524 -677h-11v677h20v-700h-17l-524 677h11v-677h-20zM392 757l-122 110h27l114 -96h-6l114 96h27l-122 -110h-32z" unicode="Ň" glyph-name="Ncaron"></glyph>
    <glyph d="M133 0v700h17l524 -677h-11v677h20v-700h-17l-524 677h11v-677h-20zM387 -259l20 94l1 -11q-10 0 -18 8t-8 18q0 11 7.5 18.5t18.5 7.5q12 0 19 -8.5t7 -17.5q0 -8 -2 -16l-4 -16l-23 -77h-18z" unicode="Ņ" glyph-name="uni0145"></glyph>
    <glyph d="M133 0v700h17l524 -677h-11v677h20v-700h-17l-524 677h11v-677h-20zM408 791q-10 0 -18 8t-8 18q0 11 8 18.5t18 7.5q11 0 18.5 -7.5t7.5 -18.5q0 -10 -7.5 -18t-18.5 -8z" unicode="Ṅ" glyph-name="uni1E44"></glyph>
    <glyph d="M133 0v700h17l524 -677h-11v677h20v-700h-17l-524 677h11v-677h-20zM408 -176q-10 0 -18 8t-8 18q0 11 8 18.5t18 7.5q11 0 18.5 -7.5t7.5 -18.5q0 -10 -7.5 -18t-18.5 -8z" unicode="Ṇ" glyph-name="uni1E46"></glyph>
    <glyph d="M133 0v700h17l524 -677l-8 -23l-524 677h11v-677h-20zM511 -197q-53 0 -99.5 26.5t-74.5 72.5l14 12q29 -44 70.5 -68t90.5 -24q151 0 151 180v698h20v-700q0 -98 -43 -147.5t-129 -49.5z" unicode="Ŋ" glyph-name="Eng"></glyph>
    <glyph d="M133 0v700h17l524 -677h-11v677h20v-700h-17l-524 677h11v-677h-20zM834 -197q-30 0 -58 9t-46 28l14 14q34 -32 89 -32q50 0 76.5 29t26.5 84v582h20v-587q0 -57 -31.5 -92t-90.5 -35zM946 660q-10 0 -18 8t-8 18q0 11 8 18.5t18 7.5q11 0 18.5 -7.5t7.5 -18.5
q0 -10 -7.5 -18t-18.5 -8z" unicode="ǋ" glyph-name="uni01CB"></glyph>
    <glyph d="M133 0v700h17l524 -677h-11v677h20v-700h-17l-524 677h11v-677h-20zM272 -160v20h272v-20h-272z" unicode="Ṉ" glyph-name="uni1E48"></glyph>
    <glyph d="M133 0v700h17l524 -677h-11v677h20v-700h-17l-524 677h11v-677h-20zM471 769q-21 0 -37.5 10.5t-30 24t-27.5 24t-31 10.5q-24 0 -38 -18t-16 -49h-19q2 39 21.5 62.5t51.5 23.5q21 0 37.5 -10.5t30 -24t27.5 -24t31 -10.5q24 0 38.5 18t15.5 47h19q-1 -37 -21 -60.5
t-52 -23.5z" unicode="Ñ" glyph-name="Ntilde"></glyph>
    <glyph d="M418 -3q-77 0 -142.5 26.5t-114 74.5t-75.5 112t-27 140t27 140t75.5 112t114 74.5t142.5 26.5t142.5 -26.5t114 -74.5t75.5 -112t27 -140t-27 -140t-75.5 -112t-114 -74.5t-142.5 -26.5zM418 16q72 0 134 25t108 70.5t71.5 106t25.5 132.5t-25.5 132.5t-71.5 106
t-108 70.5t-134 25t-134 -25t-108 -70.5t-71.5 -106t-25.5 -132.5t25.5 -132.5t71.5 -106t108 -70.5t134 -25z" unicode="O" glyph-name="O"></glyph>
    <glyph d="M418 -3q-77 0 -142.5 26.5t-114 74.5t-75.5 112t-27 140t27 140t75.5 112t114 74.5t142.5 26.5t142.5 -26.5t114 -74.5t75.5 -112t27 -140t-27 -140t-75.5 -112t-114 -74.5t-142.5 -26.5zM418 16q72 0 134 25t108 70.5t71.5 106t25.5 132.5t-25.5 132.5t-71.5 106
t-108 70.5t-134 25t-134 -25t-108 -70.5t-71.5 -106t-25.5 -132.5t25.5 -132.5t71.5 -106t108 -70.5t134 -25zM373 757l140 110h40l-150 -110h-30z" unicode="Ó" glyph-name="Oacute"></glyph>
    <glyph d="M418 -3q-77 0 -142.5 26.5t-114 74.5t-75.5 112t-27 140t27 140t75.5 112t114 74.5t142.5 26.5t142.5 -26.5t114 -74.5t75.5 -112t27 -140t-27 -140t-75.5 -112t-114 -74.5t-142.5 -26.5zM418 16q72 0 134 25t108 70.5t71.5 106t25.5 132.5t-25.5 132.5t-71.5 106
t-108 70.5t-134 25t-134 -25t-108 -70.5t-71.5 -106t-25.5 -132.5t25.5 -132.5t71.5 -106t108 -70.5t134 -25zM418 754q-54 0 -92 30.5t-40 82.5h19q2 -43 34.5 -68.5t78.5 -25.5q47 0 79.5 25.5t33.5 68.5h19q-1 -52 -39.5 -82.5t-92.5 -30.5z" unicode="Ŏ" glyph-name="Obreve"></glyph>
    <glyph d="M418 -3q-77 0 -142.5 26.5t-114 74.5t-75.5 112t-27 140t27 140t75.5 112t114 74.5t142.5 26.5t142.5 -26.5t114 -74.5t75.5 -112t27 -140t-27 -140t-75.5 -112t-114 -74.5t-142.5 -26.5zM418 16q72 0 134 25t108 70.5t71.5 106t25.5 132.5t-25.5 132.5t-71.5 106
t-108 70.5t-134 25t-134 -25t-108 -70.5t-71.5 -106t-25.5 -132.5t25.5 -132.5t71.5 -106t108 -70.5t134 -25zM280 757l122 110h32l122 -110h-27l-114 96h6l-114 -96h-27z" unicode="Ô" glyph-name="Ocircumflex"></glyph>
    <glyph d="M418 -3q-77 0 -142.5 26.5t-114 74.5t-75.5 112t-27 140t27 140t75.5 112t114 74.5t142.5 26.5t142.5 -26.5t114 -74.5t75.5 -112t27 -140t-27 -140t-75.5 -112t-114 -74.5t-142.5 -26.5zM418 16q72 0 134 25t108 70.5t71.5 106t25.5 132.5t-25.5 132.5t-71.5 106
t-108 70.5t-134 25t-134 -25t-108 -70.5t-71.5 -106t-25.5 -132.5t25.5 -132.5t71.5 -106t108 -70.5t134 -25zM280 757l123 80h30l123 -80h-30l-113 67h10l-113 -67h-30zM493 832l127 100h40l-137 -100h-30z" unicode="Ố" glyph-name="uni1ED0"></glyph>
    <glyph d="M418 -3q-77 0 -142.5 26.5t-114 74.5t-75.5 112t-27 140t27 140t75.5 112t114 74.5t142.5 26.5t142.5 -26.5t114 -74.5t75.5 -112t27 -140t-27 -140t-75.5 -112t-114 -74.5t-142.5 -26.5zM418 16q72 0 134 25t108 70.5t71.5 106t25.5 132.5t-25.5 132.5t-71.5 106
t-108 70.5t-134 25t-134 -25t-108 -70.5t-71.5 -106t-25.5 -132.5t25.5 -132.5t71.5 -106t108 -70.5t134 -25zM418 -176q-10 0 -18 8t-8 18q0 11 8 18.5t18 7.5q11 0 18.5 -7.5t7.5 -18.5q0 -10 -7.5 -18t-18.5 -8zM280 757l122 110h32l122 -110h-27l-114 96h6l-114 -96h-27
z" unicode="Ộ" glyph-name="uni1ED8"></glyph>
    <glyph d="M418 -3q-77 0 -142.5 26.5t-114 74.5t-75.5 112t-27 140t27 140t75.5 112t114 74.5t142.5 26.5t142.5 -26.5t114 -74.5t75.5 -112t27 -140t-27 -140t-75.5 -112t-114 -74.5t-142.5 -26.5zM418 16q72 0 134 25t108 70.5t71.5 106t25.5 132.5t-25.5 132.5t-71.5 106
t-108 70.5t-134 25t-134 -25t-108 -70.5t-71.5 -106t-25.5 -132.5t25.5 -132.5t71.5 -106t108 -70.5t134 -25zM280 757l123 80h30l123 -80h-30l-113 67h10l-113 -67h-30zM553 832l-137 100h40l127 -100h-30z" unicode="Ồ" glyph-name="uni1ED2"></glyph>
    <glyph d="M418 -3q-77 0 -142.5 26.5t-114 74.5t-75.5 112t-27 140t27 140t75.5 112t114 74.5t142.5 26.5t142.5 -26.5t114 -74.5t75.5 -112t27 -140t-27 -140t-75.5 -112t-114 -74.5t-142.5 -26.5zM418 16q72 0 134 25t108 70.5t71.5 106t25.5 132.5t-25.5 132.5t-71.5 106
t-108 70.5t-134 25t-134 -25t-108 -70.5t-71.5 -106t-25.5 -132.5t25.5 -132.5t71.5 -106t108 -70.5t134 -25zM280 757l123 80h30l123 -80h-30l-113 67h10l-113 -67h-30zM521 818l-10 15q21 10 33 24.5t12 31.5q0 16 -11.5 26t-30.5 10q-24 0 -43 -13l-8 16q11 8 24.5 12
t27.5 4q28 0 44 -15t16 -40q0 -22 -13.5 -40.5t-40.5 -30.5z" unicode="Ổ" glyph-name="uni1ED4"></glyph>
    <glyph d="M418 -3q-77 0 -142.5 26.5t-114 74.5t-75.5 112t-27 140t27 140t75.5 112t114 74.5t142.5 26.5t142.5 -26.5t114 -74.5t75.5 -112t27 -140t-27 -140t-75.5 -112t-114 -74.5t-142.5 -26.5zM418 16q72 0 134 25t108 70.5t71.5 106t25.5 132.5t-25.5 132.5t-71.5 106
t-108 70.5t-134 25t-134 -25t-108 -70.5t-71.5 -106t-25.5 -132.5t25.5 -132.5t71.5 -106t108 -70.5t134 -25zM280 757l123 80h30l123 -80h-30l-113 67h10l-113 -67h-30zM479 870q-26 0 -45.5 13.5t-37 27t-39.5 13.5q-24 0 -38.5 -13.5t-15.5 -38.5h-19q1 32 21 51.5
t52 19.5q27 0 46 -13.5t37 -27t39 -13.5q24 0 38.5 13t15.5 37h19q-1 -31 -21 -50t-52 -19z" unicode="Ỗ" glyph-name="uni1ED6"></glyph>
    <glyph d="M418 -3q-77 0 -142.5 26.5t-114 74.5t-75.5 112t-27 140t27 140t75.5 112t114 74.5t142.5 26.5t142.5 -26.5t114 -74.5t75.5 -112t27 -140t-27 -140t-75.5 -112t-114 -74.5t-142.5 -26.5zM418 16q72 0 134 25t108 70.5t71.5 106t25.5 132.5t-25.5 132.5t-71.5 106
t-108 70.5t-134 25t-134 -25t-108 -70.5t-71.5 -106t-25.5 -132.5t25.5 -132.5t71.5 -106t108 -70.5t134 -25zM474 757l-118 110h34l111 -110h-27zM335 757l-118 110h34l111 -110h-27z" unicode="Ȍ" glyph-name="uni020C"></glyph>
    <glyph d="M418 -3q-77 0 -142.5 26.5t-114 74.5t-75.5 112t-27 140t27 140t75.5 112t114 74.5t142.5 26.5t142.5 -26.5t114 -74.5t75.5 -112t27 -140t-27 -140t-75.5 -112t-114 -74.5t-142.5 -26.5zM418 16q72 0 134 25t108 70.5t71.5 106t25.5 132.5t-25.5 132.5t-71.5 106
t-108 70.5t-134 25t-134 -25t-108 -70.5t-71.5 -106t-25.5 -132.5t25.5 -132.5t71.5 -106t108 -70.5t134 -25zM500 791q-10 0 -18 8t-8 18q0 11 8 18.5t18 7.5q11 0 18.5 -7.5t7.5 -18.5q0 -10 -7.5 -18t-18.5 -8zM336 791q-10 0 -18 8t-8 18q0 11 8 18.5t18 7.5
q11 0 18.5 -7.5t7.5 -18.5q0 -10 -7.5 -18t-18.5 -8z" unicode="Ö" glyph-name="Odieresis"></glyph>
    <glyph d="M418 -3q-77 0 -142.5 26.5t-114 74.5t-75.5 112t-27 140t27 140t75.5 112t114 74.5t142.5 26.5t142.5 -26.5t114 -74.5t75.5 -112t27 -140t-27 -140t-75.5 -112t-114 -74.5t-142.5 -26.5zM418 16q72 0 134 25t108 70.5t71.5 106t25.5 132.5t-25.5 132.5t-71.5 106
t-108 70.5t-134 25t-134 -25t-108 -70.5t-71.5 -106t-25.5 -132.5t25.5 -132.5t71.5 -106t108 -70.5t134 -25zM500 791q-10 0 -18 8t-8 18q0 11 8 18.5t18 7.5q11 0 18.5 -7.5t7.5 -18.5q0 -10 -7.5 -18t-18.5 -8zM336 791q-10 0 -18 8t-8 18q0 11 8 18.5t18 7.5
q11 0 18.5 -7.5t7.5 -18.5q0 -10 -7.5 -18t-18.5 -8zM282 900v20h272v-20h-272z" unicode="Ȫ" glyph-name="uni022A"></glyph>
    <glyph d="M418 -3q-77 0 -142.5 26.5t-114 74.5t-75.5 112t-27 140t27 140t75.5 112t114 74.5t142.5 26.5t142.5 -26.5t114 -74.5t75.5 -112t27 -140t-27 -140t-75.5 -112t-114 -74.5t-142.5 -26.5zM418 16q72 0 134 25t108 70.5t71.5 106t25.5 132.5t-25.5 132.5t-71.5 106
t-108 70.5t-134 25t-134 -25t-108 -70.5t-71.5 -106t-25.5 -132.5t25.5 -132.5t71.5 -106t108 -70.5t134 -25zM418 791q-10 0 -18 8t-8 18q0 11 8 18.5t18 7.5q11 0 18.5 -7.5t7.5 -18.5q0 -10 -7.5 -18t-18.5 -8zM282 900v20h272v-20h-272z" unicode="Ȱ" glyph-name="uni0230"></glyph>
    <glyph d="M418 -3q-77 0 -142.5 26.5t-114 74.5t-75.5 112t-27 140t27 140t75.5 112t114 74.5t142.5 26.5t142.5 -26.5t114 -74.5t75.5 -112t27 -140t-27 -140t-75.5 -112t-114 -74.5t-142.5 -26.5zM418 16q72 0 134 25t108 70.5t71.5 106t25.5 132.5t-25.5 132.5t-71.5 106
t-108 70.5t-134 25t-134 -25t-108 -70.5t-71.5 -106t-25.5 -132.5t25.5 -132.5t71.5 -106t108 -70.5t134 -25zM418 -176q-10 0 -18 8t-8 18q0 11 8 18.5t18 7.5q11 0 18.5 -7.5t7.5 -18.5q0 -10 -7.5 -18t-18.5 -8z" unicode="Ọ" glyph-name="uni1ECC"></glyph>
    <glyph d="M418 -3q-77 0 -142.5 26.5t-114 74.5t-75.5 112t-27 140t27 140t75.5 112t114 74.5t142.5 26.5t142.5 -26.5t114 -74.5t75.5 -112t27 -140t-27 -140t-75.5 -112t-114 -74.5t-142.5 -26.5zM418 16q72 0 134 25t108 70.5t71.5 106t25.5 132.5t-25.5 132.5t-71.5 106
t-108 70.5t-134 25t-134 -25t-108 -70.5t-71.5 -106t-25.5 -132.5t25.5 -132.5t71.5 -106t108 -70.5t134 -25zM433 757l-150 110h40l140 -110h-30z" unicode="Ò" glyph-name="Ograve"></glyph>
    <glyph d="M418 -3q-77 0 -142.5 26.5t-114 74.5t-75.5 112t-27 140t27 140t75.5 112t114 74.5t142.5 26.5t142.5 -26.5t114 -74.5t75.5 -112t27 -140t-27 -140t-75.5 -112t-114 -74.5t-142.5 -26.5zM418 16q72 0 134 25t108 70.5t71.5 106t25.5 132.5t-25.5 132.5t-71.5 106
t-108 70.5t-134 25t-134 -25t-108 -70.5t-71.5 -106t-25.5 -132.5t25.5 -132.5t71.5 -106t108 -70.5t134 -25zM420 753l-10 16q31 14 47 33t16 44q0 23 -16 38.5t-42 15.5q-33 0 -62 -19l-8 17q14 10 33 15.5t36 5.5q36 0 57.5 -19.5t21.5 -52.5q0 -30 -17.5 -53t-55.5 -41z" unicode="Ỏ" glyph-name="uni1ECE"></glyph>
    <glyph d="M418 -3q-77 0 -142.5 26.5t-114 74.5t-75.5 112t-27 140t27 140t75.5 112t114 74.5t142.5 26.5q65 0 112.5 -7.5t96.5 -7.5q56 0 83 20.5t27 61.5q0 20 -6 36.5t-14 30.5l18 8q10 -15 16 -34.5t6 -39.5q0 -51 -32.5 -76.5t-97.5 -25.5q-16 0 -43 2t-49 6l13 3
q70 -24 121.5 -73t79.5 -115t28 -142t-27 -140t-75.5 -112t-114 -74.5t-142.5 -26.5zM418 16q72 0 134 25.5t108 71t71.5 106t25.5 131.5t-25.5 131.5t-71.5 106t-108 71t-134 25.5t-134 -25.5t-108 -71t-71.5 -106t-25.5 -131.5t25.5 -131.5t71.5 -106t108 -71t134 -25.5z" unicode="Ơ" glyph-name="Ohorn"></glyph>
    <glyph d="M418 -3q-77 0 -142.5 26.5t-114 74.5t-75.5 112t-27 140t27 140t75.5 112t114 74.5t142.5 26.5q65 0 112.5 -7.5t96.5 -7.5q56 0 83 20.5t27 61.5q0 20 -6 36.5t-14 30.5l18 8q10 -15 16 -34.5t6 -39.5q0 -51 -32.5 -76.5t-97.5 -25.5q-16 0 -43 2t-49 6l13 3
q70 -24 121.5 -73t79.5 -115t28 -142t-27 -140t-75.5 -112t-114 -74.5t-142.5 -26.5zM418 16q72 0 134 25.5t108 71t71.5 106t25.5 131.5t-25.5 131.5t-71.5 106t-108 71t-134 25.5t-134 -25.5t-108 -71t-71.5 -106t-25.5 -131.5t25.5 -131.5t71.5 -106t108 -71t134 -25.5z
M373 757l140 110h40l-150 -110h-30z" unicode="Ớ" glyph-name="uni1EDA"></glyph>
    <glyph d="M418 -3q-77 0 -142.5 26.5t-114 74.5t-75.5 112t-27 140t27 140t75.5 112t114 74.5t142.5 26.5q65 0 112.5 -7.5t96.5 -7.5q56 0 83 20.5t27 61.5q0 20 -6 36.5t-14 30.5l18 8q10 -15 16 -34.5t6 -39.5q0 -51 -32.5 -76.5t-97.5 -25.5q-16 0 -43 2t-49 6l13 3
q70 -24 121.5 -73t79.5 -115t28 -142t-27 -140t-75.5 -112t-114 -74.5t-142.5 -26.5zM418 16q72 0 134 25.5t108 71t71.5 106t25.5 131.5t-25.5 131.5t-71.5 106t-108 71t-134 25.5t-134 -25.5t-108 -71t-71.5 -106t-25.5 -131.5t25.5 -131.5t71.5 -106t108 -71t134 -25.5z
M418 -176q-10 0 -18 8t-8 18q0 11 8 18.5t18 7.5q11 0 18.5 -7.5t7.5 -18.5q0 -10 -7.5 -18t-18.5 -8z" unicode="Ợ" glyph-name="uni1EE2"></glyph>
    <glyph d="M418 -3q-77 0 -142.5 26.5t-114 74.5t-75.5 112t-27 140t27 140t75.5 112t114 74.5t142.5 26.5q65 0 112.5 -7.5t96.5 -7.5q56 0 83 20.5t27 61.5q0 20 -6 36.5t-14 30.5l18 8q10 -15 16 -34.5t6 -39.5q0 -51 -32.5 -76.5t-97.5 -25.5q-16 0 -43 2t-49 6l13 3
q70 -24 121.5 -73t79.5 -115t28 -142t-27 -140t-75.5 -112t-114 -74.5t-142.5 -26.5zM418 16q72 0 134 25.5t108 71t71.5 106t25.5 131.5t-25.5 131.5t-71.5 106t-108 71t-134 25.5t-134 -25.5t-108 -71t-71.5 -106t-25.5 -131.5t25.5 -131.5t71.5 -106t108 -71t134 -25.5z
M433 757l-150 110h40l140 -110h-30z" unicode="Ờ" glyph-name="uni1EDC"></glyph>
    <glyph d="M418 -3q-77 0 -142.5 26.5t-114 74.5t-75.5 112t-27 140t27 140t75.5 112t114 74.5t142.5 26.5q65 0 112.5 -7.5t96.5 -7.5q56 0 83 20.5t27 61.5q0 20 -6 36.5t-14 30.5l18 8q10 -15 16 -34.5t6 -39.5q0 -51 -32.5 -76.5t-97.5 -25.5q-16 0 -43 2t-49 6l13 3
q70 -24 121.5 -73t79.5 -115t28 -142t-27 -140t-75.5 -112t-114 -74.5t-142.5 -26.5zM418 16q72 0 134 25.5t108 71t71.5 106t25.5 131.5t-25.5 131.5t-71.5 106t-108 71t-134 25.5t-134 -25.5t-108 -71t-71.5 -106t-25.5 -131.5t25.5 -131.5t71.5 -106t108 -71t134 -25.5z
M420 753l-10 16q31 14 47 33t16 44q0 23 -16 38.5t-42 15.5q-33 0 -62 -19l-8 17q14 10 33 15.5t36 5.5q36 0 57.5 -19.5t21.5 -52.5q0 -30 -17.5 -53t-55.5 -41z" unicode="Ở" glyph-name="uni1EDE"></glyph>
    <glyph d="M418 -3q-77 0 -142.5 26.5t-114 74.5t-75.5 112t-27 140t27 140t75.5 112t114 74.5t142.5 26.5q65 0 112.5 -7.5t96.5 -7.5q56 0 83 20.5t27 61.5q0 20 -6 36.5t-14 30.5l18 8q10 -15 16 -34.5t6 -39.5q0 -51 -32.5 -76.5t-97.5 -25.5q-16 0 -43 2t-49 6l13 3
q70 -24 121.5 -73t79.5 -115t28 -142t-27 -140t-75.5 -112t-114 -74.5t-142.5 -26.5zM418 16q72 0 134 25.5t108 71t71.5 106t25.5 131.5t-25.5 131.5t-71.5 106t-108 71t-134 25.5t-134 -25.5t-108 -71t-71.5 -106t-25.5 -131.5t25.5 -131.5t71.5 -106t108 -71t134 -25.5z
M481 769q-21 0 -37.5 10.5t-30 24t-27.5 24t-31 10.5q-24 0 -38 -18t-16 -49h-19q2 39 21.5 62.5t51.5 23.5q21 0 37.5 -10.5t30 -24t27.5 -24t31 -10.5q24 0 38.5 18t15.5 47h19q-1 -37 -21 -60.5t-52 -23.5z" unicode="Ỡ" glyph-name="uni1EE0"></glyph>
    <glyph d="M418 -3q-77 0 -142.5 26.5t-114 74.5t-75.5 112t-27 140t27 140t75.5 112t114 74.5t142.5 26.5t142.5 -26.5t114 -74.5t75.5 -112t27 -140t-27 -140t-75.5 -112t-114 -74.5t-142.5 -26.5zM418 16q72 0 134 25t108 70.5t71.5 106t25.5 132.5t-25.5 132.5t-71.5 106
t-108 70.5t-134 25t-134 -25t-108 -70.5t-71.5 -106t-25.5 -132.5t25.5 -132.5t71.5 -106t108 -70.5t134 -25zM474 757l111 110h34l-118 -110h-27zM335 757l111 110h34l-118 -110h-27z" unicode="Ő" glyph-name="Ohungarumlaut"></glyph>
    <glyph d="M418 -3q-77 0 -142.5 26.5t-114 74.5t-75.5 112t-27 140t27 140t75.5 112t114 74.5t142.5 26.5t142.5 -26.5t114 -74.5t75.5 -112t27 -140t-27 -140t-75.5 -112t-114 -74.5t-142.5 -26.5zM418 16q72 0 134 25t108 70.5t71.5 106t25.5 132.5t-25.5 132.5t-71.5 106
t-108 70.5t-134 25t-134 -25t-108 -70.5t-71.5 -106t-25.5 -132.5t25.5 -132.5t71.5 -106t108 -70.5t134 -25zM286 757q2 53 40 83t92 30t92.5 -30t39.5 -83h-19q-1 44 -33.5 69t-79.5 25q-46 0 -78.5 -25t-34.5 -69h-19z" unicode="Ȏ" glyph-name="uni020E"></glyph>
    <glyph d="M418 -3q-77 0 -142.5 26.5t-114 74.5t-75.5 112t-27 140t27 140t75.5 112t114 74.5t142.5 26.5t142.5 -26.5t114 -74.5t75.5 -112t27 -140t-27 -140t-75.5 -112t-114 -74.5t-142.5 -26.5zM418 16q72 0 134 25t108 70.5t71.5 106t25.5 132.5t-25.5 132.5t-71.5 106
t-108 70.5t-134 25t-134 -25t-108 -70.5t-71.5 -106t-25.5 -132.5t25.5 -132.5t71.5 -106t108 -70.5t134 -25zM282 802v20h272v-20h-272z" unicode="Ō" glyph-name="Omacron"></glyph>
    <glyph d="M418 -3q-77 0 -142.5 26.5t-114 74.5t-75.5 112t-27 140t27 140t75.5 112t114 74.5t142.5 26.5t142.5 -26.5t114 -74.5t75.5 -112t27 -140t-27 -140t-75.5 -112t-114 -74.5t-142.5 -26.5zM418 16q72 0 134 25t108 70.5t71.5 106t25.5 132.5t-25.5 132.5t-71.5 106
t-108 70.5t-134 25t-134 -25t-108 -70.5t-71.5 -106t-25.5 -132.5t25.5 -132.5t71.5 -106t108 -70.5t134 -25zM282 787v20h272v-20h-272zM373 870l127 100h40l-137 -100h-30z" unicode="Ṓ" glyph-name="uni1E52"></glyph>
    <glyph d="M418 -3q-77 0 -142.5 26.5t-114 74.5t-75.5 112t-27 140t27 140t75.5 112t114 74.5t142.5 26.5t142.5 -26.5t114 -74.5t75.5 -112t27 -140t-27 -140t-75.5 -112t-114 -74.5t-142.5 -26.5zM418 16q72 0 134 25t108 70.5t71.5 106t25.5 132.5t-25.5 132.5t-71.5 106
t-108 70.5t-134 25t-134 -25t-108 -70.5t-71.5 -106t-25.5 -132.5t25.5 -132.5t71.5 -106t108 -70.5t134 -25zM282 787v20h272v-20h-272zM433 870l-137 100h40l127 -100h-30z" unicode="Ṑ" glyph-name="uni1E50"></glyph>
    <glyph d="M413 -213q-39 0 -65 22t-26 61q0 21 11 45.5t41 50.5t85 50l-18 -17q-6 -1 -11.5 -1.5t-11.5 -0.5q-77 0 -142.5 26.5t-114 74.5t-75.5 112t-27 140t27 140t75.5 112t114 74.5t142.5 26.5t142.5 -26.5t114 -74.5t75.5 -112t27 -140q0 -92 -38 -164.5t-100.5 -118.5
t-138.5 -61q-41 -8 -77 -28t-58.5 -47.5t-22.5 -60.5q0 -32 20.5 -48t51.5 -16q17 0 33.5 6t28.5 17l11 -15q-16 -14 -34.5 -20.5t-39.5 -6.5zM418 16q72 0 134 25t108 70.5t71.5 106t25.5 132.5t-25.5 132.5t-71.5 106t-108 70.5t-134 25t-134 -25t-108 -70.5t-71.5 -106
t-25.5 -132.5t25.5 -132.5t71.5 -106t108 -70.5t134 -25z" unicode="Ǫ" glyph-name="uni01EA"></glyph>
    <glyph d="M418 -3q-77 0 -142.5 26.5t-114 74.5t-75.5 112t-27 140t27 140t75.5 112t114 74.5t142.5 26.5t142.5 -26.5t114 -74.5t75.5 -112t27 -140t-27 -140t-75.5 -112t-114 -74.5t-142.5 -26.5zM418 16q72 0 134 25t108 70.5t71.5 106t25.5 132.5t-25.5 132.5t-71.5 106
t-108 70.5t-134 25t-134 -25t-108 -70.5t-71.5 -106t-25.5 -132.5t25.5 -132.5t71.5 -106t108 -70.5t134 -25zM99 -70l615 840h23l-615 -840h-23z" unicode="Ø" glyph-name="Oslash"></glyph>
    <glyph d="M418 -3q-77 0 -142.5 26.5t-114 74.5t-75.5 112t-27 140t27 140t75.5 112t114 74.5t142.5 26.5t142.5 -26.5t114 -74.5t75.5 -112t27 -140t-27 -140t-75.5 -112t-114 -74.5t-142.5 -26.5zM418 16q72 0 134 25t108 70.5t71.5 106t25.5 132.5t-25.5 132.5t-71.5 106
t-108 70.5t-134 25t-134 -25t-108 -70.5t-71.5 -106t-25.5 -132.5t25.5 -132.5t71.5 -106t108 -70.5t134 -25zM99 -70l615 840h23l-615 -840h-23zM373 757l140 110h40l-150 -110h-30z" unicode="Ǿ" glyph-name="Oslashacute"></glyph>
    <glyph d="M418 -3q-77 0 -142.5 26.5t-114 74.5t-75.5 112t-27 140t27 140t75.5 112t114 74.5t142.5 26.5t142.5 -26.5t114 -74.5t75.5 -112t27 -140t-27 -140t-75.5 -112t-114 -74.5t-142.5 -26.5zM418 16q72 0 134 25t108 70.5t71.5 106t25.5 132.5t-25.5 132.5t-71.5 106
t-108 70.5t-134 25t-134 -25t-108 -70.5t-71.5 -106t-25.5 -132.5t25.5 -132.5t71.5 -106t108 -70.5t134 -25zM481 769q-21 0 -37.5 10.5t-30 24t-27.5 24t-31 10.5q-24 0 -38 -18t-16 -49h-19q2 39 21.5 62.5t51.5 23.5q21 0 37.5 -10.5t30 -24t27.5 -24t31 -10.5
q24 0 38.5 18t15.5 47h19q-1 -37 -21 -60.5t-52 -23.5z" unicode="Õ" glyph-name="Otilde"></glyph>
    <glyph d="M418 -3q-77 0 -142.5 26.5t-114 74.5t-75.5 112t-27 140t27 140t75.5 112t114 74.5t142.5 26.5t142.5 -26.5t114 -74.5t75.5 -112t27 -140t-27 -140t-75.5 -112t-114 -74.5t-142.5 -26.5zM418 16q72 0 134 25t108 70.5t71.5 106t25.5 132.5t-25.5 132.5t-71.5 106
t-108 70.5t-134 25t-134 -25t-108 -70.5t-71.5 -106t-25.5 -132.5t25.5 -132.5t71.5 -106t108 -70.5t134 -25zM479 772q-26 0 -45.5 13.5t-37 27t-39.5 13.5q-24 0 -38.5 -13.5t-15.5 -38.5h-19q1 32 21 51.5t52 19.5q27 0 46 -13.5t37 -27t39 -13.5q24 0 38.5 13t15.5 37
h19q-1 -31 -21 -50t-52 -19zM373 870l127 100h40l-137 -100h-30z" unicode="Ṍ" glyph-name="uni1E4C"></glyph>
    <glyph d="M418 -3q-77 0 -142.5 26.5t-114 74.5t-75.5 112t-27 140t27 140t75.5 112t114 74.5t142.5 26.5t142.5 -26.5t114 -74.5t75.5 -112t27 -140t-27 -140t-75.5 -112t-114 -74.5t-142.5 -26.5zM418 16q72 0 134 25t108 70.5t71.5 106t25.5 132.5t-25.5 132.5t-71.5 106
t-108 70.5t-134 25t-134 -25t-108 -70.5t-71.5 -106t-25.5 -132.5t25.5 -132.5t71.5 -106t108 -70.5t134 -25zM479 772q-26 0 -45.5 13.5t-37 27t-39.5 13.5q-24 0 -38.5 -13.5t-15.5 -38.5h-19q1 32 21 51.5t52 19.5q27 0 46 -13.5t37 -27t39 -13.5q24 0 38.5 13t15.5 37
h19q-1 -31 -21 -50t-52 -19zM500 904q-10 0 -18 8t-8 18q0 11 8 18.5t18 7.5q11 0 18.5 -7.5t7.5 -18.5q0 -10 -7.5 -18t-18.5 -8zM336 904q-10 0 -18 8t-8 18q0 11 8 18.5t18 7.5q11 0 18.5 -7.5t7.5 -18.5q0 -10 -7.5 -18t-18.5 -8z" unicode="Ṏ" glyph-name="uni1E4E"></glyph>
    <glyph d="M418 -3q-77 0 -142.5 26.5t-114 74.5t-75.5 112t-27 140t27 140t75.5 112t114 74.5t142.5 26.5t142.5 -26.5t114 -74.5t75.5 -112t27 -140t-27 -140t-75.5 -112t-114 -74.5t-142.5 -26.5zM418 16q72 0 134 25t108 70.5t71.5 106t25.5 132.5t-25.5 132.5t-71.5 106
t-108 70.5t-134 25t-134 -25t-108 -70.5t-71.5 -106t-25.5 -132.5t25.5 -132.5t71.5 -106t108 -70.5t134 -25zM479 772q-26 0 -45.5 13.5t-37 27t-39.5 13.5q-24 0 -38.5 -13.5t-15.5 -38.5h-19q1 32 21 51.5t52 19.5q27 0 46 -13.5t37 -27t39 -13.5q24 0 38.5 13t15.5 37
h19q-1 -31 -21 -50t-52 -19zM282 900v20h272v-20h-272z" unicode="Ȭ" glyph-name="uni022C"></glyph>
    <glyph d="M428 0q-110 0 -193 45t-129.5 124t-46.5 180t46.5 180.5t129.5 125t193 45.5h155v-19h-155q-105 0 -183.5 -43t-122 -118t-43.5 -171t43.5 -170.5t122 -117t183.5 -42.5h155v-19h-155zM592 365h391v-19h-391v19zM597 19h446v-19h-466v700h451v-19h-431v-662z" unicode="Œ" glyph-name="OE"></glyph>
    <glyph d="M133 0v700h237q86 0 147.5 -27.5t94.5 -78.5t33 -124q0 -72 -33 -123.5t-94.5 -79t-147.5 -27.5h-226l9 9v-249h-20zM153 251l-9 8h228q123 0 188 55.5t65 155.5q0 101 -65 156t-188 55h-228l9 8v-438z" unicode="P" glyph-name="P"></glyph>
    <glyph d="M144 139v19h228q123 0 188 55.5t65 156.5t-65 156t-188 55h-228v19h226q86 0 147.5 -27.5t94.5 -78.5t33 -124t-33 -124.5t-94.5 -79t-147.5 -27.5h-226zM133 0v700h20v-700h-20z" unicode="Þ" glyph-name="Thorn"></glyph>
    <glyph d="M418 -3q-77 0 -142.5 26.5t-114 74.5t-75.5 112t-27 140t27 140t75.5 112t114 74.5t142.5 26.5t142.5 -26.5t114 -74.5t75.5 -112t27 -140t-27 -140t-75.5 -112t-114 -74.5t-142.5 -26.5zM648 -124q-27 0 -53 7.5t-53.5 23t-56 39.5t-60.5 57l26 5q34 -37 67.5 -62.5
t66 -38t63.5 -12.5q86 0 145 71l14 -14q-62 -76 -159 -76zM418 16q72 0 134 25.5t108 71t71.5 106t25.5 131.5t-25.5 131.5t-71.5 106t-108 71t-134 25.5t-134 -25.5t-108 -71t-71.5 -106t-25.5 -131.5t25.5 -131.5t71.5 -106t108 -71t134 -25.5z" unicode="Q" glyph-name="Q"></glyph>
    <glyph d="M133 0v700h237q86 0 147.5 -27.5t94.5 -78.5t33 -124q0 -72 -33 -123.5t-94.5 -79t-147.5 -27.5h-226l9 9v-249h-20zM630 0l-183 254h25l183 -254h-25zM153 251l-9 8h228q123 0 188 55.5t65 155.5q0 101 -65 156t-188 55h-228l9 8v-438z" unicode="R" glyph-name="R"></glyph>
    <glyph d="M133 0v700h237q86 0 147.5 -27.5t94.5 -78.5t33 -124q0 -72 -33 -123.5t-94.5 -79t-147.5 -27.5h-226l9 9v-249h-20zM630 0l-183 254h25l183 -254h-25zM153 251l-9 8h228q123 0 188 55.5t65 155.5q0 101 -65 156t-188 55h-228l9 8v-438zM321 757l140 110h40l-150 -110
h-30z" unicode="Ŕ" glyph-name="Racute"></glyph>
    <glyph d="M133 0v700h237q86 0 147.5 -27.5t94.5 -78.5t33 -124q0 -72 -33 -123.5t-94.5 -79t-147.5 -27.5h-226l9 9v-249h-20zM630 0l-183 254h25l183 -254h-25zM153 251l-9 8h228q123 0 188 55.5t65 155.5q0 101 -65 156t-188 55h-228l9 8v-438zM350 757l-122 110h27l114 -96h-6
l114 96h27l-122 -110h-32z" unicode="Ř" glyph-name="Rcaron"></glyph>
    <glyph d="M133 0v700h237q86 0 147.5 -27.5t94.5 -78.5t33 -124q0 -72 -33 -123.5t-94.5 -79t-147.5 -27.5h-226l9 9v-249h-20zM630 0l-183 254h25l183 -254h-25zM153 251l-9 8h228q123 0 188 55.5t65 155.5q0 101 -65 156t-188 55h-228l9 8v-438zM345 -259l20 94l1 -11
q-10 0 -18 8t-8 18q0 11 7.5 18.5t18.5 7.5q12 0 19 -8.5t7 -17.5q0 -8 -2 -16l-4 -16l-23 -77h-18z" unicode="Ŗ" glyph-name="uni0156"></glyph>
    <glyph d="M133 0v700h237q86 0 147.5 -27.5t94.5 -78.5t33 -124q0 -72 -33 -123.5t-94.5 -79t-147.5 -27.5h-226l9 9v-249h-20zM630 0l-183 254h25l183 -254h-25zM153 251l-9 8h228q123 0 188 55.5t65 155.5q0 101 -65 156t-188 55h-228l9 8v-438zM422 757l-118 110h34l111 -110
h-27zM283 757l-118 110h34l111 -110h-27z" unicode="Ȑ" glyph-name="uni0210"></glyph>
    <glyph d="M133 0v700h237q86 0 147.5 -27.5t94.5 -78.5t33 -124q0 -72 -33 -123.5t-94.5 -79t-147.5 -27.5h-226l9 9v-249h-20zM630 0l-183 254h25l183 -254h-25zM153 251l-9 8h228q123 0 188 55.5t65 155.5q0 101 -65 156t-188 55h-228l9 8v-438zM366 -176q-10 0 -18 8t-8 18
q0 11 8 18.5t18 7.5q11 0 18.5 -7.5t7.5 -18.5q0 -10 -7.5 -18t-18.5 -8z" unicode="Ṛ" glyph-name="uni1E5A"></glyph>
    <glyph d="M133 0v700h237q86 0 147.5 -27.5t94.5 -78.5t33 -124q0 -72 -33 -123.5t-94.5 -79t-147.5 -27.5h-226l9 9v-249h-20zM630 0l-183 254h25l183 -254h-25zM153 251l-9 8h228q123 0 188 55.5t65 155.5q0 101 -65 156t-188 55h-228l9 8v-438zM234 757q2 53 40 83t92 30
t92.5 -30t39.5 -83h-19q-1 44 -33.5 69t-79.5 25q-46 0 -78.5 -25t-34.5 -69h-19z" unicode="Ȓ" glyph-name="uni0212"></glyph>
    <glyph d="M133 0v700h237q86 0 147.5 -27.5t94.5 -78.5t33 -124q0 -72 -33 -123.5t-94.5 -79t-147.5 -27.5h-226l9 9v-249h-20zM630 0l-183 254h25l183 -254h-25zM153 251l-9 8h228q123 0 188 55.5t65 155.5q0 101 -65 156t-188 55h-228l9 8v-438zM230 -160v20h272v-20h-272z" unicode="Ṟ" glyph-name="uni1E5E"></glyph>
    <glyph d="M304 -3q-76 0 -143.5 28t-102.5 71l14 13q33 -39 95.5 -66t135.5 -27q76 0 124.5 21t72 56.5t23.5 78.5q0 50 -24 80.5t-64 48t-87 29t-94.5 23.5t-87.5 31.5t-64 53.5t-24 89q0 46 24.5 86t76 65t133.5 25q56 0 110.5 -17.5t92.5 -46.5l-11 -16q-42 31 -93 46t-98 15
q-73 0 -121 -21.5t-71 -57t-23 -79.5q0 -51 24 -81.5t64 -48t87.5 -29t94.5 -24t87 -32t64 -52.5t24 -87q0 -46 -25 -86t-78 -64.5t-136 -24.5z" unicode="S" glyph-name="S"></glyph>
    <glyph d="M304 -3q-76 0 -143.5 28t-102.5 71l14 13q33 -39 95.5 -66t135.5 -27q76 0 124.5 21t72 56.5t23.5 78.5q0 50 -24 80.5t-64 48t-87 29t-94.5 23.5t-87.5 31.5t-64 53.5t-24 89q0 46 24.5 86t76 65t133.5 25q56 0 110.5 -17.5t92.5 -46.5l-11 -16q-42 31 -93 46t-98 15
q-73 0 -121 -21.5t-71 -57t-23 -79.5q0 -51 24 -81.5t64 -48t87.5 -29t94.5 -24t87 -32t64 -52.5t24 -87q0 -46 -25 -86t-78 -64.5t-136 -24.5zM273 757l140 110h40l-150 -110h-30z" unicode="Ś" glyph-name="Sacute"></glyph>
    <glyph d="M304 -3q-76 0 -143.5 28t-102.5 71l14 13q33 -39 95.5 -66t135.5 -27q76 0 124.5 21t72 56.5t23.5 78.5q0 50 -24 80.5t-64 48t-87 29t-94.5 23.5t-87.5 31.5t-64 53.5t-24 89q0 46 24.5 86t76 65t133.5 25q56 0 110.5 -17.5t92.5 -46.5l-11 -16q-42 31 -93 46t-98 15
q-73 0 -121 -21.5t-71 -57t-23 -79.5q0 -51 24 -81.5t64 -48t87.5 -29t94.5 -24t87 -32t64 -52.5t24 -87q0 -46 -25 -86t-78 -64.5t-136 -24.5zM273 757l127 100h40l-137 -100h-30zM318 904q-10 0 -18 8t-8 18q0 11 8 18.5t18 7.5q11 0 18.5 -7.5t7.5 -18.5q0 -10 -7.5 -18
t-18.5 -8z" unicode="Ṥ" glyph-name="uni1E64"></glyph>
    <glyph d="M94 299v401h20v-401h-20z" unicode="Ꞌ" glyph-name="uniA78B"></glyph>
    <glyph d="M304 -3q-76 0 -143.5 28t-102.5 71l14 13q33 -39 95.5 -66t135.5 -27q76 0 124.5 21t72 56.5t23.5 78.5q0 50 -24 80.5t-64 48t-87 29t-94.5 23.5t-87.5 31.5t-64 53.5t-24 89q0 46 24.5 86t76 65t133.5 25q56 0 110.5 -17.5t92.5 -46.5l-11 -16q-42 31 -93 46t-98 15
q-73 0 -121 -21.5t-71 -57t-23 -79.5q0 -51 24 -81.5t64 -48t87.5 -29t94.5 -24t87 -32t64 -52.5t24 -87q0 -46 -25 -86t-78 -64.5t-136 -24.5zM302 757l-122 110h27l114 -96h-6l114 96h27l-122 -110h-32z" unicode="Š" glyph-name="Scaron"></glyph>
    <glyph d="M304 -3q-76 0 -143.5 28t-102.5 71l14 13q33 -39 95.5 -66t135.5 -27q76 0 124.5 21t72 56.5t23.5 78.5q0 50 -24 80.5t-64 48t-87 29t-94.5 23.5t-87.5 31.5t-64 53.5t-24 89q0 46 24.5 86t76 65t133.5 25q56 0 110.5 -17.5t92.5 -46.5l-11 -16q-42 31 -93 46t-98 15
q-73 0 -121 -21.5t-71 -57t-23 -79.5q0 -51 24 -81.5t64 -48t87.5 -29t94.5 -24t87 -32t64 -52.5t24 -87q0 -46 -25 -86t-78 -64.5t-136 -24.5zM303 757l-123 80h30l113 -67h-10l113 67h30l-123 -80h-30zM318 881q-10 0 -18 8t-8 18q0 11 8 18.5t18 7.5q11 0 18.5 -7.5
t7.5 -18.5q0 -10 -7.5 -18t-18.5 -8z" unicode="Ṧ" glyph-name="uni1E66"></glyph>
    <glyph d="M304 -3q-76 0 -143.5 28t-102.5 71l14 13q33 -39 95.5 -66t135.5 -27q76 0 124.5 21t72 56.5t23.5 78.5q0 50 -24 80.5t-64 48t-87 29t-94.5 23.5t-87.5 31.5t-64 53.5t-24 89q0 46 24.5 86t76 65t133.5 25q56 0 110.5 -17.5t92.5 -46.5l-11 -16q-42 31 -93 46t-98 15
q-73 0 -121 -21.5t-71 -57t-23 -79.5q0 -51 24 -81.5t64 -48t87.5 -29t94.5 -24t87 -32t64 -52.5t24 -87q0 -46 -25 -86t-78 -64.5t-136 -24.5zM302 -213q-21 0 -39 6.5t-35 20.5l11 15q12 -11 28.5 -17t33.5 -6q31 0 51.5 15.5t20.5 44.5q0 26 -18.5 43t-52.5 17h-16l22 79
h19l-17 -61q38 -2 60.5 -23t22.5 -55q0 -36 -26 -57.5t-65 -21.5z" unicode="Ş" glyph-name="Scedilla"></glyph>
    <glyph d="M304 -3q-76 0 -143.5 28t-102.5 71l14 13q33 -39 95.5 -66t135.5 -27q76 0 124.5 21t72 56.5t23.5 78.5q0 50 -24 80.5t-64 48t-87 29t-94.5 23.5t-87.5 31.5t-64 53.5t-24 89q0 46 24.5 86t76 65t133.5 25q56 0 110.5 -17.5t92.5 -46.5l-11 -16q-42 31 -93 46t-98 15
q-73 0 -121 -21.5t-71 -57t-23 -79.5q0 -51 24 -81.5t64 -48t87.5 -29t94.5 -24t87 -32t64 -52.5t24 -87q0 -46 -25 -86t-78 -64.5t-136 -24.5zM180 757l122 110h32l122 -110h-27l-114 96h6l-114 -96h-27z" unicode="Ŝ" glyph-name="Scircumflex"></glyph>
    <glyph d="M304 -3q-76 0 -143.5 28t-102.5 71l14 13q33 -39 95.5 -66t135.5 -27q76 0 124.5 21t72 56.5t23.5 78.5q0 50 -24 80.5t-64 48t-87 29t-94.5 23.5t-87.5 31.5t-64 53.5t-24 89q0 46 24.5 86t76 65t133.5 25q56 0 110.5 -17.5t92.5 -46.5l-11 -16q-42 31 -93 46t-98 15
q-73 0 -121 -21.5t-71 -57t-23 -79.5q0 -51 24 -81.5t64 -48t87.5 -29t94.5 -24t87 -32t64 -52.5t24 -87q0 -46 -25 -86t-78 -64.5t-136 -24.5zM297 -259l20 94l1 -11q-10 0 -18 8t-8 18q0 11 7.5 18.5t18.5 7.5q12 0 19 -8.5t7 -17.5q0 -8 -2 -16l-4 -16l-23 -77h-18z" unicode="Ș" glyph-name="uni0218"></glyph>
    <glyph d="M304 -3q-76 0 -143.5 28t-102.5 71l14 13q33 -39 95.5 -66t135.5 -27q76 0 124.5 21t72 56.5t23.5 78.5q0 50 -24 80.5t-64 48t-87 29t-94.5 23.5t-87.5 31.5t-64 53.5t-24 89q0 46 24.5 86t76 65t133.5 25q56 0 110.5 -17.5t92.5 -46.5l-11 -16q-42 31 -93 46t-98 15
q-73 0 -121 -21.5t-71 -57t-23 -79.5q0 -51 24 -81.5t64 -48t87.5 -29t94.5 -24t87 -32t64 -52.5t24 -87q0 -46 -25 -86t-78 -64.5t-136 -24.5zM318 791q-10 0 -18 8t-8 18q0 11 8 18.5t18 7.5q11 0 18.5 -7.5t7.5 -18.5q0 -10 -7.5 -18t-18.5 -8z" unicode="Ṡ" glyph-name="uni1E60"></glyph>
    <glyph d="M304 -3q-76 0 -143.5 28t-102.5 71l14 13q33 -39 95.5 -66t135.5 -27q76 0 124.5 21t72 56.5t23.5 78.5q0 50 -24 80.5t-64 48t-87 29t-94.5 23.5t-87.5 31.5t-64 53.5t-24 89q0 46 24.5 86t76 65t133.5 25q56 0 110.5 -17.5t92.5 -46.5l-11 -16q-42 31 -93 46t-98 15
q-73 0 -121 -21.5t-71 -57t-23 -79.5q0 -51 24 -81.5t64 -48t87.5 -29t94.5 -24t87 -32t64 -52.5t24 -87q0 -46 -25 -86t-78 -64.5t-136 -24.5zM318 -176q-10 0 -18 8t-8 18q0 11 8 18.5t18 7.5q11 0 18.5 -7.5t7.5 -18.5q0 -10 -7.5 -18t-18.5 -8z" unicode="Ṣ" glyph-name="uni1E62"></glyph>
    <glyph d="M304 -3q-76 0 -143.5 28t-102.5 71l14 13q33 -39 95.5 -66t135.5 -27q76 0 124.5 21t72 56.5t23.5 78.5q0 50 -24 80.5t-64 48t-87 29t-94.5 23.5t-87.5 31.5t-64 53.5t-24 89q0 46 24.5 86t76 65t133.5 25q56 0 110.5 -17.5t92.5 -46.5l-11 -16q-42 31 -93 46t-98 15
q-73 0 -121 -21.5t-71 -57t-23 -79.5q0 -51 24 -81.5t64 -48t87.5 -29t94.5 -24t87 -32t64 -52.5t24 -87q0 -46 -25 -86t-78 -64.5t-136 -24.5zM318 -176q-10 0 -18 8t-8 18q0 11 8 18.5t18 7.5q11 0 18.5 -7.5t7.5 -18.5q0 -10 -7.5 -18t-18.5 -8zM318 791q-10 0 -18 8
t-8 18q0 11 8 18.5t18 7.5q11 0 18.5 -7.5t7.5 -18.5q0 -10 -7.5 -18t-18.5 -8z" unicode="Ṩ" glyph-name="uni1E68"></glyph>
    <glyph d="M452 -3q-38 0 -69.5 7t-63.5 21l8 19q29 -14 61.5 -21t69.5 -7q90 0 144.5 45t54.5 132q0 88 -55.5 132t-147.5 44q-24 0 -47.5 -3t-43.5 -9l-7 16l250 257l-3 -12q-39 35 -91 50.5t-108 15.5q-125 0 -191 -67.5t-66 -194.5v-422h-20v424q0 87 32.5 149.5t94 96
t148.5 33.5q41 0 79.5 -8t72.5 -23.5t62 -40.5v-16l-241 -248l-1 10q18 6 38.5 8.5t41.5 2.5q67 0 117 -22t78 -65.5t28 -107.5t-27.5 -107.5t-78 -66t-119.5 -22.5z" unicode="ẞ" glyph-name="uni1E9E"></glyph>
    <glyph d="M408 -3q-75 0 -139 26.5t-111 74.5t-73 112t-26 140v10h683v-19h-671l8 9q0 -71 24.5 -131.5t69 -106t104.5 -71t131 -25.5q67 0 126.5 25.5t105 71t71.5 106t26 130.5v2q0 71 -25.5 131.5t-72 105.5t-108 70.5t-133.5 25.5q-43 0 -83.5 -8t-77 -26t-70.5 -47l-11 15
q32 29 70 47.5t81.5 28t90.5 9.5q77 0 142.5 -26.5t114 -74t75.5 -112t27 -139.5q0 -73 -27 -137t-75 -113t-111 -76.5t-136 -27.5z" unicode="Ə" glyph-name="uni018F"></glyph>
    <glyph d="M264 0v681h-260v19h540v-19h-260v-681h-20z" unicode="T" glyph-name="T"></glyph>
    <glyph d="M264 0v681h-260v19h540v-19h-260v-681h-20zM94 346v19h360v-19h-360z" unicode="Ŧ" glyph-name="Tbar"></glyph>
    <glyph d="M264 0v681h-260v19h540v-19h-260v-681h-20zM258 757l-122 110h27l114 -96h-6l114 96h27l-122 -110h-32z" unicode="Ť" glyph-name="Tcaron"></glyph>
    <glyph d="M264 0v681h-260v19h540v-19h-260v-681h-20zM258 -213q-21 0 -39 6.5t-35 20.5l11 15q12 -11 28.5 -17t33.5 -6q31 0 51.5 15.5t20.5 44.5q0 26 -18.5 43t-52.5 17h-16l22 79h19l-17 -61q38 -2 60.5 -23t22.5 -55q0 -36 -26 -57.5t-65 -21.5z" unicode="Ţ" glyph-name="uni0162"></glyph>
    <glyph d="M264 0v681h-260v19h540v-19h-260v-681h-20zM253 -259l20 94l1 -11q-10 0 -18 8t-8 18q0 11 7.5 18.5t18.5 7.5q12 0 19 -8.5t7 -17.5q0 -8 -2 -16l-4 -16l-23 -77h-18z" unicode="Ț" glyph-name="uni021A"></glyph>
    <glyph d="M264 0v681h-260v19h540v-19h-260v-681h-20zM274 -176q-10 0 -18 8t-8 18q0 11 8 18.5t18 7.5q11 0 18.5 -7.5t7.5 -18.5q0 -10 -7.5 -18t-18.5 -8z" unicode="Ṭ" glyph-name="uni1E6C"></glyph>
    <glyph d="M264 0v681h-260v19h540v-19h-260v-681h-20zM138 -160v20h272v-20h-272z" unicode="Ṯ" glyph-name="uni1E6E"></glyph>
    <glyph d="M397 -3q-125 0 -197.5 74t-72.5 222v407h20v-406q0 -140 65.5 -209t184.5 -69t184.5 69t65.5 209v406h20v-407q0 -148 -72.5 -222t-197.5 -74z" unicode="U" glyph-name="U"></glyph>
    <glyph d="M397 -3q-125 0 -197.5 74t-72.5 222v407h20v-406q0 -140 65.5 -209t184.5 -69t184.5 69t65.5 209v406h20v-407q0 -148 -72.5 -222t-197.5 -74zM352 757l140 110h40l-150 -110h-30z" unicode="Ú" glyph-name="Uacute"></glyph>
    <glyph d="M397 -3q-125 0 -197.5 74t-72.5 222v407h20v-406q0 -140 65.5 -209t184.5 -69t184.5 69t65.5 209v406h20v-407q0 -148 -72.5 -222t-197.5 -74zM397 754q-54 0 -92 30.5t-40 82.5h19q2 -43 34.5 -68.5t78.5 -25.5q47 0 79.5 25.5t33.5 68.5h19q-1 -52 -39.5 -82.5
t-92.5 -30.5z" unicode="Ŭ" glyph-name="Ubreve"></glyph>
    <glyph d="M397 -3q-125 0 -197.5 74t-72.5 222v407h20v-406q0 -140 65.5 -209t184.5 -69t184.5 69t65.5 209v406h20v-407q0 -148 -72.5 -222t-197.5 -74zM381 757l-122 110h27l114 -96h-6l114 96h27l-122 -110h-32z" unicode="Ǔ" glyph-name="uni01D3"></glyph>
    <glyph d="M397 -3q-125 0 -197.5 74t-72.5 222v407h20v-406q0 -140 65.5 -209t184.5 -69t184.5 69t65.5 209v406h20v-407q0 -148 -72.5 -222t-197.5 -74zM259 757l122 110h32l122 -110h-27l-114 96h6l-114 -96h-27z" unicode="Û" glyph-name="Ucircumflex"></glyph>
    <glyph d="M397 -3q-125 0 -197.5 74t-72.5 222v407h20v-406q0 -140 65.5 -209t184.5 -69t184.5 69t65.5 209v406h20v-407q0 -148 -72.5 -222t-197.5 -74zM453 757l-118 110h34l111 -110h-27zM314 757l-118 110h34l111 -110h-27z" unicode="Ȕ" glyph-name="uni0214"></glyph>
    <glyph d="M397 -3q-125 0 -197.5 74t-72.5 222v407h20v-406q0 -140 65.5 -209t184.5 -69t184.5 69t65.5 209v406h20v-407q0 -148 -72.5 -222t-197.5 -74zM479 791q-10 0 -18 8t-8 18q0 11 8 18.5t18 7.5q11 0 18.5 -7.5t7.5 -18.5q0 -10 -7.5 -18t-18.5 -8zM315 791q-10 0 -18 8
t-8 18q0 11 8 18.5t18 7.5q11 0 18.5 -7.5t7.5 -18.5q0 -10 -7.5 -18t-18.5 -8z" unicode="Ü" glyph-name="Udieresis"></glyph>
    <glyph d="M397 -3q-125 0 -197.5 74t-72.5 222v407h20v-406q0 -140 65.5 -209t184.5 -69t184.5 69t65.5 209v406h20v-407q0 -148 -72.5 -222t-197.5 -74zM397 -176q-10 0 -18 8t-8 18q0 11 8 18.5t18 7.5q11 0 18.5 -7.5t7.5 -18.5q0 -10 -7.5 -18t-18.5 -8z" unicode="Ụ" glyph-name="uni1EE4"></glyph>
    <glyph d="M397 -3q-125 0 -197.5 74t-72.5 222v407h20v-406q0 -140 65.5 -209t184.5 -69t184.5 69t65.5 209v406h20v-407q0 -148 -72.5 -222t-197.5 -74zM412 757l-150 110h40l140 -110h-30z" unicode="Ù" glyph-name="Ugrave"></glyph>
    <glyph d="M397 -3q-125 0 -197.5 74t-72.5 222v407h20v-406q0 -140 65.5 -209t184.5 -69t184.5 69t65.5 209v406h20v-407q0 -148 -72.5 -222t-197.5 -74zM399 753l-10 16q31 14 47 33t16 44q0 23 -16 38.5t-42 15.5q-33 0 -62 -19l-8 17q14 10 33 15.5t36 5.5q36 0 57.5 -19.5
t21.5 -52.5q0 -30 -17.5 -53t-55.5 -41z" unicode="Ủ" glyph-name="uni1EE6"></glyph>
    <glyph d="M397 -3q-125 0 -197.5 74t-72.5 222v407h20v-406q0 -140 65.5 -209t184.5 -69t184.5 69t65.5 209v406h20v-407q0 -148 -72.5 -222t-197.5 -74zM662 681v19h10q39 0 54.5 21t15.5 49q0 20 -6 36.5t-14 30.5l18 8q10 -15 16 -34.5t6 -39.5q0 -37 -20.5 -63.5t-69.5 -26.5
h-10z" unicode="Ư" glyph-name="Uhorn"></glyph>
    <glyph d="M397 -3q-125 0 -197.5 74t-72.5 222v407h20v-406q0 -140 65.5 -209t184.5 -69t184.5 69t65.5 209v406h20v-407q0 -148 -72.5 -222t-197.5 -74zM662 681v19h10q39 0 54.5 21t15.5 49q0 20 -6 36.5t-14 30.5l18 8q10 -15 16 -34.5t6 -39.5q0 -37 -20.5 -63.5t-69.5 -26.5
h-10zM352 757l140 110h40l-150 -110h-30z" unicode="Ứ" glyph-name="uni1EE8"></glyph>
    <glyph d="M397 -3q-125 0 -197.5 74t-72.5 222v407h20v-406q0 -140 65.5 -209t184.5 -69t184.5 69t65.5 209v406h20v-407q0 -148 -72.5 -222t-197.5 -74zM662 681v19h10q39 0 54.5 21t15.5 49q0 20 -6 36.5t-14 30.5l18 8q10 -15 16 -34.5t6 -39.5q0 -37 -20.5 -63.5t-69.5 -26.5
h-10zM397 -176q-10 0 -18 8t-8 18q0 11 8 18.5t18 7.5q11 0 18.5 -7.5t7.5 -18.5q0 -10 -7.5 -18t-18.5 -8z" unicode="Ự" glyph-name="uni1EF0"></glyph>
    <glyph d="M397 -3q-125 0 -197.5 74t-72.5 222v407h20v-406q0 -140 65.5 -209t184.5 -69t184.5 69t65.5 209v406h20v-407q0 -148 -72.5 -222t-197.5 -74zM662 681v19h10q39 0 54.5 21t15.5 49q0 20 -6 36.5t-14 30.5l18 8q10 -15 16 -34.5t6 -39.5q0 -37 -20.5 -63.5t-69.5 -26.5
h-10zM412 757l-150 110h40l140 -110h-30z" unicode="Ừ" glyph-name="uni1EEA"></glyph>
    <glyph d="M397 -3q-125 0 -197.5 74t-72.5 222v407h20v-406q0 -140 65.5 -209t184.5 -69t184.5 69t65.5 209v406h20v-407q0 -148 -72.5 -222t-197.5 -74zM662 681v19h10q39 0 54.5 21t15.5 49q0 20 -6 36.5t-14 30.5l18 8q10 -15 16 -34.5t6 -39.5q0 -37 -20.5 -63.5t-69.5 -26.5
h-10zM399 753l-10 16q31 14 47 33t16 44q0 23 -16 38.5t-42 15.5q-33 0 -62 -19l-8 17q14 10 33 15.5t36 5.5q36 0 57.5 -19.5t21.5 -52.5q0 -30 -17.5 -53t-55.5 -41z" unicode="Ử" glyph-name="uni1EEC"></glyph>
    <glyph d="M397 -3q-125 0 -197.5 74t-72.5 222v407h20v-406q0 -140 65.5 -209t184.5 -69t184.5 69t65.5 209v406h20v-407q0 -148 -72.5 -222t-197.5 -74zM662 681v19h10q39 0 54.5 21t15.5 49q0 20 -6 36.5t-14 30.5l18 8q10 -15 16 -34.5t6 -39.5q0 -37 -20.5 -63.5t-69.5 -26.5
h-10zM460 769q-21 0 -37.5 10.5t-30 24t-27.5 24t-31 10.5q-24 0 -38 -18t-16 -49h-19q2 39 21.5 62.5t51.5 23.5q21 0 37.5 -10.5t30 -24t27.5 -24t31 -10.5q24 0 38.5 18t15.5 47h19q-1 -37 -21 -60.5t-52 -23.5z" unicode="Ữ" glyph-name="uni1EEE"></glyph>
    <glyph d="M397 -3q-125 0 -197.5 74t-72.5 222v407h20v-406q0 -140 65.5 -209t184.5 -69t184.5 69t65.5 209v406h20v-407q0 -148 -72.5 -222t-197.5 -74zM453 757l111 110h34l-118 -110h-27zM314 757l111 110h34l-118 -110h-27z" unicode="Ű" glyph-name="Uhungarumlaut"></glyph>
    <glyph d="M397 -3q-125 0 -197.5 74t-72.5 222v407h20v-406q0 -140 65.5 -209t184.5 -69t184.5 69t65.5 209v406h20v-407q0 -148 -72.5 -222t-197.5 -74zM265 757q2 53 40 83t92 30t92.5 -30t39.5 -83h-19q-1 44 -33.5 69t-79.5 25q-46 0 -78.5 -25t-34.5 -69h-19z" unicode="Ȗ" glyph-name="uni0216"></glyph>
    <glyph d="M397 -3q-125 0 -197.5 74t-72.5 222v407h20v-406q0 -140 65.5 -209t184.5 -69t184.5 69t65.5 209v406h20v-407q0 -148 -72.5 -222t-197.5 -74zM261 802v20h272v-20h-272z" unicode="Ū" glyph-name="Umacron"></glyph>
    <glyph d="M397 -3q-125 0 -197.5 74t-72.5 222v407h20v-406q0 -140 65.5 -209t184.5 -69t184.5 69t65.5 209v406h20v-407q0 -148 -72.5 -222t-197.5 -74zM261 788v20h272v-20h-272zM479 905q-10 0 -18 8t-8 18q0 11 8 18.5t18 7.5q11 0 18.5 -7.5t7.5 -18.5q0 -10 -7.5 -18
t-18.5 -8zM315 905q-10 0 -18 8t-8 18q0 11 8 18.5t18 7.5q11 0 18.5 -7.5t7.5 -18.5q0 -10 -7.5 -18t-18.5 -8z" unicode="Ṻ" glyph-name="uni1E7A"></glyph>
    <glyph d="M647 700h20v-407q0 -121 -46.5 -189.5t-130.5 -95.5q-67 -22 -100.5 -47t-44.5 -48.5t-11 -42.5q0 -32 20.5 -48t51.5 -16q17 0 33.5 6t28.5 17l11 -15q-16 -14 -34.5 -20.5t-39.5 -6.5q-39 0 -65 22t-26 61q0 21 10.5 45.5t40 50.5t86.5 48l-16 -15q-9 -1 -19 -1.5
t-19 -0.5q-125 0 -197.5 74t-72.5 222v407h20v-406q0 -140 65.5 -209t184.5 -69t184.5 69t65.5 209v406z" unicode="Ų" glyph-name="Uogonek"></glyph>
    <glyph d="M397 -3q-125 0 -197.5 74t-72.5 222v407h20v-406q0 -140 65.5 -209t184.5 -69t184.5 69t65.5 209v406h20v-407q0 -148 -72.5 -222t-197.5 -74zM396 780q-27 0 -47.5 12.5t-32.5 33t-12 44.5q0 25 12 46t33 34t47 13q27 0 48 -13t33 -34t12 -46q0 -24 -12 -44.5t-33 -33
t-48 -12.5zM396 799q32 0 52.5 21t20.5 50q0 30 -20.5 52t-52.5 22q-31 0 -51.5 -21.5t-20.5 -52.5q0 -30 20 -50.5t52 -20.5z" unicode="Ů" glyph-name="Uring"></glyph>
    <glyph d="M397 -3q-125 0 -197.5 74t-72.5 222v407h20v-406q0 -140 65.5 -209t184.5 -69t184.5 69t65.5 209v406h20v-407q0 -148 -72.5 -222t-197.5 -74zM460 769q-21 0 -37.5 10.5t-30 24t-27.5 24t-31 10.5q-24 0 -38 -18t-16 -49h-19q2 39 21.5 62.5t51.5 23.5q21 0 37.5 -10.5
t30 -24t27.5 -24t31 -10.5q24 0 38.5 18t15.5 47h19q-1 -37 -21 -60.5t-52 -23.5z" unicode="Ũ" glyph-name="Utilde"></glyph>
    <glyph d="M397 -3q-125 0 -197.5 74t-72.5 222v407h20v-406q0 -140 65.5 -209t184.5 -69t184.5 69t65.5 209v406h20v-407q0 -148 -72.5 -222t-197.5 -74zM458 772q-26 0 -45.5 13.5t-37 27t-39.5 13.5q-24 0 -38.5 -13.5t-15.5 -38.5h-19q1 32 21 51.5t52 19.5q27 0 46 -13.5
t37 -27t39 -13.5q24 0 38.5 13t15.5 37h19q-1 -31 -21 -50t-52 -19zM352 870l127 100h40l-137 -100h-30z" unicode="Ṹ" glyph-name="uni1E78"></glyph>
    <glyph d="M325 0l-315 700h23l307 -684h-10l307 684h23l-315 -700h-20z" unicode="V" glyph-name="V"></glyph>
    <glyph d="M285 0l-240 700h22l234 -684h-11l240 684h20l240 -684h-10l234 684h21l-240 -700h-20l-237 678h4l-237 -678h-20z" unicode="W" glyph-name="W"></glyph>
    <glyph d="M285 0l-240 700h22l234 -684h-11l240 684h20l240 -684h-10l234 684h21l-240 -700h-20l-237 678h4l-237 -678h-20zM495 757l140 110h40l-150 -110h-30z" unicode="Ẃ" glyph-name="Wacute"></glyph>
    <glyph d="M285 0l-240 700h22l234 -684h-11l240 684h20l240 -684h-10l234 684h21l-240 -700h-20l-237 678h4l-237 -678h-20zM402 757l122 110h32l122 -110h-27l-114 96h6l-114 -96h-27z" unicode="Ŵ" glyph-name="Wcircumflex"></glyph>
    <glyph d="M285 0l-240 700h22l234 -684h-11l240 684h20l240 -684h-10l234 684h21l-240 -700h-20l-237 678h4l-237 -678h-20zM622 791q-10 0 -18 8t-8 18q0 11 8 18.5t18 7.5q11 0 18.5 -7.5t7.5 -18.5q0 -10 -7.5 -18t-18.5 -8zM458 791q-10 0 -18 8t-8 18q0 11 8 18.5t18 7.5
q11 0 18.5 -7.5t7.5 -18.5q0 -10 -7.5 -18t-18.5 -8z" unicode="Ẅ" glyph-name="Wdieresis"></glyph>
    <glyph d="M285 0l-240 700h22l234 -684h-11l240 684h20l240 -684h-10l234 684h21l-240 -700h-20l-237 678h4l-237 -678h-20zM555 757l-150 110h40l140 -110h-30z" unicode="Ẁ" glyph-name="Wgrave"></glyph>
    <glyph d="M25 0l279 370v-16l-259 346h25l244 -327h-6l244 327h24l-256 -342v8l276 -366h-25l-264 351h6l-264 -351h-24z" unicode="X" glyph-name="X"></glyph>
    <glyph d="M295 0v245l5 -15l-290 470h23l276 -447h-8l276 447h23l-290 -470l5 15v-245h-20z" unicode="Y" glyph-name="Y"></glyph>
    <glyph d="M295 0v245l5 -15l-290 470h23l276 -447h-8l276 447h23l-290 -470l5 15v-245h-20zM260 757l140 110h40l-150 -110h-30z" unicode="Ý" glyph-name="Yacute"></glyph>
    <glyph d="M295 0v245l5 -15l-290 470h23l276 -447h-8l276 447h23l-290 -470l5 15v-245h-20zM167 757l122 110h32l122 -110h-27l-114 96h6l-114 -96h-27z" unicode="Ŷ" glyph-name="Ycircumflex"></glyph>
    <glyph d="M295 0v245l5 -15l-290 470h23l276 -447h-8l276 447h23l-290 -470l5 15v-245h-20zM387 791q-10 0 -18 8t-8 18q0 11 8 18.5t18 7.5q11 0 18.5 -7.5t7.5 -18.5q0 -10 -7.5 -18t-18.5 -8zM223 791q-10 0 -18 8t-8 18q0 11 8 18.5t18 7.5q11 0 18.5 -7.5t7.5 -18.5
q0 -10 -7.5 -18t-18.5 -8z" unicode="Ÿ" glyph-name="Ydieresis"></glyph>
    <glyph d="M295 0v245l5 -15l-290 470h23l276 -447h-8l276 447h23l-290 -470l5 15v-245h-20zM305 791q-10 0 -18 8t-8 18q0 11 8 18.5t18 7.5q11 0 18.5 -7.5t7.5 -18.5q0 -10 -7.5 -18t-18.5 -8z" unicode="Ẏ" glyph-name="uni1E8E"></glyph>
    <glyph d="M295 0v245l5 -15l-290 470h23l276 -447h-8l276 447h23l-290 -470l5 15v-245h-20zM305 -176q-10 0 -18 8t-8 18q0 11 8 18.5t18 7.5q11 0 18.5 -7.5t7.5 -18.5q0 -10 -7.5 -18t-18.5 -8z" unicode="Ỵ" glyph-name="uni1EF4"></glyph>
    <glyph d="M295 0v245l5 -15l-290 470h23l276 -447h-8l276 447h23l-290 -470l5 15v-245h-20zM320 757l-150 110h40l140 -110h-30z" unicode="Ỳ" glyph-name="Ygrave"></glyph>
    <glyph d="M295 0v245l5 -15l-290 470h23l276 -447h-8l276 447h23l-290 -470l5 15v-245h-20zM307 753l-10 16q31 14 47 33t16 44q0 23 -16 38.5t-42 15.5q-33 0 -62 -19l-8 17q14 10 33 15.5t36 5.5q36 0 57.5 -19.5t21.5 -52.5q0 -30 -17.5 -53t-55.5 -41z" unicode="Ỷ" glyph-name="uni1EF6"></glyph>
    <glyph d="M295 0v245l5 -15l-290 470h23l276 -447h-8l276 447h23l-290 -470l5 15v-245h-20zM169 802v20h272v-20h-272z" unicode="Ȳ" glyph-name="uni0232"></glyph>
    <glyph d="M295 0v245l5 -15l-290 470h23l276 -447h-8l276 447h23l-290 -470l5 15v-245h-20zM368 769q-21 0 -37.5 10.5t-30 24t-27.5 24t-31 10.5q-24 0 -38 -18t-16 -49h-19q2 39 21.5 62.5t51.5 23.5q21 0 37.5 -10.5t30 -24t27.5 -24t31 -10.5q24 0 38.5 18t15.5 47h19
q-1 -37 -21 -60.5t-52 -23.5z" unicode="Ỹ" glyph-name="uni1EF8"></glyph>
    <glyph d="M50 0v15l517 673l1 -7h-513v19h535v-15l-517 -673l-1 7h528v-19h-550z" unicode="Z" glyph-name="Z"></glyph>
    <glyph d="M50 0v15l517 673l1 -7h-513v19h535v-15l-517 -673l-1 7h528v-19h-550zM280 757l140 110h40l-150 -110h-30z" unicode="Ź" glyph-name="Zacute"></glyph>
    <glyph d="M50 0v15l517 673l1 -7h-513v19h535v-15l-517 -673l-1 7h528v-19h-550zM309 757l-122 110h27l114 -96h-6l114 96h27l-122 -110h-32z" unicode="Ž" glyph-name="Zcaron"></glyph>
    <glyph d="M50 0v15l517 673l1 -7h-513v19h535v-15l-517 -673l-1 7h528v-19h-550zM325 791q-10 0 -18 8t-8 18q0 11 8 18.5t18 7.5q11 0 18.5 -7.5t7.5 -18.5q0 -10 -7.5 -18t-18.5 -8z" unicode="Ż" glyph-name="Zdotaccent"></glyph>
    <glyph d="M50 0v15l517 673l1 -7h-513v19h535v-15l-517 -673l-1 7h528v-19h-550zM335 -176q-10 0 -18 8t-8 18q0 11 8 18.5t18 7.5q11 0 18.5 -7.5t7.5 -18.5q0 -10 -7.5 -18t-18.5 -8z" unicode="Ẓ" glyph-name="uni1E92"></glyph>
    <glyph d="M327 -3q-60 0 -113 18.5t-94 46.5l12 16q40 -29 90 -45.5t106 -16.5q111 0 175 69t64 209v406h20v-407q0 -99 -32.5 -164.5t-90.5 -98.5t-137 -33zM127 290v410h20v-410h-20zM122 757l140 110h40l-150 -110h-30zM564 757l140 110h40l-150 -110h-30z" glyph-name="Iacute_J.loclNLD"></glyph>
    <glyph d="M127 0v407q0 99 34 165t96 98.5t145 32.5q84 0 145.5 -32.5t95.5 -98.5t34 -165v-407h-20v409q0 138 -68 206.5t-187 68.5t-187 -68.5t-68 -206.5v-409h-20zM141 231v19h525v-19h-525z" glyph-name="A.ss01"></glyph>
    <glyph d="M127 0v407q0 99 34 165t96 98.5t145 32.5q84 0 145.5 -32.5t95.5 -98.5t34 -165v-407h-20v409q0 138 -68 206.5t-187 68.5t-187 -68.5t-68 -206.5v-409h-20zM141 231v19h525v-19h-525zM357 757l140 110h40l-150 -110h-30z" glyph-name="Aacute.ss01"></glyph>
    <glyph d="M127 0v407q0 99 34 165t96 98.5t145 32.5q84 0 145.5 -32.5t95.5 -98.5t34 -165v-407h-20v409q0 138 -68 206.5t-187 68.5t-187 -68.5t-68 -206.5v-409h-20zM141 231v19h525v-19h-525zM402 754q-54 0 -92 30.5t-40 82.5h19q2 -43 34.5 -68.5t78.5 -25.5q47 0 79.5 25.5
t33.5 68.5h19q-1 -52 -39.5 -82.5t-92.5 -30.5z" glyph-name="Abreve.ss01"></glyph>
    <glyph d="M127 0v407q0 99 34 165t96 98.5t145 32.5q84 0 145.5 -32.5t95.5 -98.5t34 -165v-407h-20v409q0 138 -68 206.5t-187 68.5t-187 -68.5t-68 -206.5v-409h-20zM141 231v19h525v-19h-525zM402 754q-53 0 -89 21.5t-43 61.5h19q7 -31 37 -47.5t76 -16.5t76 16.5t37 47.5h19
q-7 -40 -43 -61.5t-89 -21.5zM357 851l127 100h40l-137 -100h-30z" glyph-name="uni1EAE.ss01"></glyph>
    <glyph d="M127 0v407q0 99 34 165t96 98.5t145 32.5q84 0 145.5 -32.5t95.5 -98.5t34 -165v-407h-20v409q0 138 -68 206.5t-187 68.5t-187 -68.5t-68 -206.5v-409h-20zM141 231v19h525v-19h-525zM402 -176q-10 0 -18 8t-8 18q0 11 8 18.5t18 7.5q11 0 18.5 -7.5t7.5 -18.5
q0 -10 -7.5 -18t-18.5 -8zM402 754q-54 0 -92 30.5t-40 82.5h19q2 -43 34.5 -68.5t78.5 -25.5q47 0 79.5 25.5t33.5 68.5h19q-1 -52 -39.5 -82.5t-92.5 -30.5z" glyph-name="uni1EB6.ss01"></glyph>
    <glyph d="M127 0v407q0 99 34 165t96 98.5t145 32.5q84 0 145.5 -32.5t95.5 -98.5t34 -165v-407h-20v409q0 138 -68 206.5t-187 68.5t-187 -68.5t-68 -206.5v-409h-20zM141 231v19h525v-19h-525zM402 754q-53 0 -89 21.5t-43 61.5h19q7 -31 37 -47.5t76 -16.5t76 16.5t37 47.5h19
q-7 -40 -43 -61.5t-89 -21.5zM417 851l-137 100h40l127 -100h-30z" glyph-name="uni1EB0.ss01"></glyph>
    <glyph d="M127 0v407q0 99 34 165t96 98.5t145 32.5q84 0 145.5 -32.5t95.5 -98.5t34 -165v-407h-20v409q0 138 -68 206.5t-187 68.5t-187 -68.5t-68 -206.5v-409h-20zM141 231v19h525v-19h-525zM402 754q-53 0 -89 21.5t-43 61.5h19q7 -31 37 -47.5t76 -16.5t76 16.5t37 47.5h19
q-7 -40 -43 -61.5t-89 -21.5zM405 827l-10 15q21 10 33 24.5t12 31.5q0 16 -11.5 26t-30.5 10q-24 0 -43 -13l-8 16q11 8 24.5 12t27.5 4q28 0 44 -15t16 -40q0 -22 -13.5 -40.5t-40.5 -30.5z" glyph-name="uni1EB2.ss01"></glyph>
    <glyph d="M127 0v407q0 99 34 165t96 98.5t145 32.5q84 0 145.5 -32.5t95.5 -98.5t34 -165v-407h-20v409q0 138 -68 206.5t-187 68.5t-187 -68.5t-68 -206.5v-409h-20zM141 231v19h525v-19h-525zM402 754q-53 0 -89 21.5t-43 61.5h19q7 -31 37 -47.5t76 -16.5t76 16.5t37 47.5h19
q-7 -40 -43 -61.5t-89 -21.5zM463 866q-26 0 -45.5 13.5t-37 27t-39.5 13.5q-24 0 -38.5 -13.5t-15.5 -38.5h-19q1 32 21 51.5t52 19.5q27 0 46 -13.5t37 -27t39 -13.5q24 0 38.5 13t15.5 37h19q-1 -31 -21 -50t-52 -19z" glyph-name="uni1EB4.ss01"></glyph>
    <glyph d="M127 0v407q0 99 34 165t96 98.5t145 32.5q84 0 145.5 -32.5t95.5 -98.5t34 -165v-407h-20v409q0 138 -68 206.5t-187 68.5t-187 -68.5t-68 -206.5v-409h-20zM141 231v19h525v-19h-525zM386 757l-122 110h27l114 -96h-6l114 96h27l-122 -110h-32z" glyph-name="uni01CD.ss01"></glyph>
    <glyph d="M127 0v407q0 99 34 165t96 98.5t145 32.5q84 0 145.5 -32.5t95.5 -98.5t34 -165v-407h-20v409q0 138 -68 206.5t-187 68.5t-187 -68.5t-68 -206.5v-409h-20zM141 231v19h525v-19h-525zM264 757l122 110h32l122 -110h-27l-114 96h6l-114 -96h-27z" glyph-name="Acircumflex.ss01"></glyph>
    <glyph d="M127 0v407q0 99 34 165t96 98.5t145 32.5q84 0 145.5 -32.5t95.5 -98.5t34 -165v-407h-20v409q0 138 -68 206.5t-187 68.5t-187 -68.5t-68 -206.5v-409h-20zM141 231v19h525v-19h-525zM264 757l123 80h30l123 -80h-30l-113 67h10l-113 -67h-30zM477 832l127 100h40
l-137 -100h-30z" glyph-name="uni1EA4.ss01"></glyph>
    <glyph d="M127 0v407q0 99 34 165t96 98.5t145 32.5q84 0 145.5 -32.5t95.5 -98.5t34 -165v-407h-20v409q0 138 -68 206.5t-187 68.5t-187 -68.5t-68 -206.5v-409h-20zM141 231v19h525v-19h-525zM402 -176q-10 0 -18 8t-8 18q0 11 8 18.5t18 7.5q11 0 18.5 -7.5t7.5 -18.5
q0 -10 -7.5 -18t-18.5 -8zM264 757l122 110h32l122 -110h-27l-114 96h6l-114 -96h-27z" glyph-name="uni1EAC.ss01"></glyph>
    <glyph d="M127 0v407q0 99 34 165t96 98.5t145 32.5q84 0 145.5 -32.5t95.5 -98.5t34 -165v-407h-20v409q0 138 -68 206.5t-187 68.5t-187 -68.5t-68 -206.5v-409h-20zM141 231v19h525v-19h-525zM264 757l123 80h30l123 -80h-30l-113 67h10l-113 -67h-30zM537 832l-137 100h40
l127 -100h-30z" glyph-name="uni1EA6.ss01"></glyph>
    <glyph d="M127 0v407q0 99 34 165t96 98.5t145 32.5q84 0 145.5 -32.5t95.5 -98.5t34 -165v-407h-20v409q0 138 -68 206.5t-187 68.5t-187 -68.5t-68 -206.5v-409h-20zM141 231v19h525v-19h-525zM264 757l123 80h30l123 -80h-30l-113 67h10l-113 -67h-30zM505 818l-10 15
q21 10 33 24.5t12 31.5q0 16 -11.5 26t-30.5 10q-24 0 -43 -13l-8 16q11 8 24.5 12t27.5 4q28 0 44 -15t16 -40q0 -22 -13.5 -40.5t-40.5 -30.5z" glyph-name="uni1EA8.ss01"></glyph>
    <glyph d="M127 0v407q0 99 34 165t96 98.5t145 32.5q84 0 145.5 -32.5t95.5 -98.5t34 -165v-407h-20v409q0 138 -68 206.5t-187 68.5t-187 -68.5t-68 -206.5v-409h-20zM141 231v19h525v-19h-525zM264 757l123 80h30l123 -80h-30l-113 67h10l-113 -67h-30zM463 870q-26 0 -45.5 13.5
t-37 27t-39.5 13.5q-24 0 -38.5 -13.5t-15.5 -38.5h-19q1 32 21 51.5t52 19.5q27 0 46 -13.5t37 -27t39 -13.5q24 0 38.5 13t15.5 37h19q-1 -31 -21 -50t-52 -19z" glyph-name="uni1EAA.ss01"></glyph>
    <glyph d="M127 0v407q0 99 34 165t96 98.5t145 32.5q84 0 145.5 -32.5t95.5 -98.5t34 -165v-407h-20v409q0 138 -68 206.5t-187 68.5t-187 -68.5t-68 -206.5v-409h-20zM141 231v19h525v-19h-525zM458 757l-118 110h34l111 -110h-27zM319 757l-118 110h34l111 -110h-27z" glyph-name="uni0200.ss01"></glyph>
    <glyph d="M127 0v407q0 99 34 165t96 98.5t145 32.5q84 0 145.5 -32.5t95.5 -98.5t34 -165v-407h-20v409q0 138 -68 206.5t-187 68.5t-187 -68.5t-68 -206.5v-409h-20zM141 231v19h525v-19h-525zM484 791q-10 0 -18 8t-8 18q0 11 8 18.5t18 7.5q11 0 18.5 -7.5t7.5 -18.5
q0 -10 -7.5 -18t-18.5 -8zM320 791q-10 0 -18 8t-8 18q0 11 8 18.5t18 7.5q11 0 18.5 -7.5t7.5 -18.5q0 -10 -7.5 -18t-18.5 -8z" glyph-name="Adieresis.ss01"></glyph>
    <glyph d="M127 0v407q0 99 34 165t96 98.5t145 32.5q84 0 145.5 -32.5t95.5 -98.5t34 -165v-407h-20v409q0 138 -68 206.5t-187 68.5t-187 -68.5t-68 -206.5v-409h-20zM141 231v19h525v-19h-525zM402 -176q-10 0 -18 8t-8 18q0 11 8 18.5t18 7.5q11 0 18.5 -7.5t7.5 -18.5
q0 -10 -7.5 -18t-18.5 -8z" glyph-name="uni1EA0.ss01"></glyph>
    <glyph d="M127 0v407q0 99 34 165t96 98.5t145 32.5q84 0 145.5 -32.5t95.5 -98.5t34 -165v-407h-20v409q0 138 -68 206.5t-187 68.5t-187 -68.5t-68 -206.5v-409h-20zM141 231v19h525v-19h-525zM417 757l-150 110h40l140 -110h-30z" glyph-name="Agrave.ss01"></glyph>
    <glyph d="M127 0v407q0 99 34 165t96 98.5t145 32.5q84 0 145.5 -32.5t95.5 -98.5t34 -165v-407h-20v409q0 138 -68 206.5t-187 68.5t-187 -68.5t-68 -206.5v-409h-20zM141 231v19h525v-19h-525zM404 753l-10 16q31 14 47 33t16 44q0 23 -16 38.5t-42 15.5q-33 0 -62 -19l-8 17
q14 10 33 15.5t36 5.5q36 0 57.5 -19.5t21.5 -52.5q0 -30 -17.5 -53t-55.5 -41z" glyph-name="uni1EA2.ss01"></glyph>
    <glyph d="M127 0v407q0 99 34 165t96 98.5t145 32.5q84 0 145.5 -32.5t95.5 -98.5t34 -165v-407h-20v409q0 138 -68 206.5t-187 68.5t-187 -68.5t-68 -206.5v-409h-20zM141 231v19h525v-19h-525zM270 757q2 53 40 83t92 30t92.5 -30t39.5 -83h-19q-1 44 -33.5 69t-79.5 25
q-46 0 -78.5 -25t-34.5 -69h-19z" glyph-name="uni0202.ss01"></glyph>
    <glyph d="M127 0v407q0 99 34 165t96 98.5t145 32.5q84 0 145.5 -32.5t95.5 -98.5t34 -165v-407h-20v409q0 138 -68 206.5t-187 68.5t-187 -68.5t-68 -206.5v-409h-20zM141 231v19h525v-19h-525zM266 802v20h272v-20h-272z" glyph-name="Amacron.ss01"></glyph>
    <glyph d="M127 0v407q0 99 34 165t96 98.5t145 32.5q84 0 145.5 -32.5t95.5 -98.5t34 -165v-407h-20v409q0 138 -68 206.5t-187 68.5t-187 -68.5t-68 -206.5v-409h-20zM141 231v19h525v-19h-525zM621 -213q-39 0 -65 22t-26 61q0 21 10.5 45t40 50t86.5 51l10 -16
q-55 -23 -82 -46.5t-36 -44.5t-9 -39q0 -32 20.5 -48t51.5 -16q17 0 33.5 6t28.5 17l11 -15q-16 -14 -34.5 -20.5t-39.5 -6.5z" glyph-name="Aogonek.ss01"></glyph>
    <glyph d="M127 0v407q0 99 34 165t96 98.5t145 32.5q84 0 145.5 -32.5t95.5 -98.5t34 -165v-407h-20v409q0 138 -68 206.5t-187 68.5t-187 -68.5t-68 -206.5v-409h-20zM141 231v19h525v-19h-525zM401 780q-27 0 -47.5 12.5t-32.5 33t-12 44.5q0 25 12 46t33 34t47 13q27 0 48 -13
t33 -34t12 -46q0 -24 -12 -44.5t-33 -33t-48 -12.5zM401 799q32 0 52.5 21t20.5 50q0 30 -20.5 52t-52.5 22q-31 0 -51.5 -21.5t-20.5 -52.5q0 -30 20 -50.5t52 -20.5z" glyph-name="Aring.ss01"></glyph>
    <glyph d="M127 0v407q0 99 34 165t96 98.5t145 32.5q84 0 145.5 -32.5t95.5 -98.5t34 -165v-407h-20v409q0 138 -68 206.5t-187 68.5t-187 -68.5t-68 -206.5v-409h-20zM141 231v19h525v-19h-525zM401 780q-27 0 -47.5 12.5t-32.5 33t-12 44.5q0 25 12 46t33 34t47 13q27 0 48 -13
t33 -34t12 -46q0 -24 -12 -44.5t-33 -33t-48 -12.5zM401 799q32 0 52.5 21t20.5 50q0 30 -20.5 52t-52.5 22q-31 0 -51.5 -21.5t-20.5 -52.5q0 -30 20 -50.5t52 -20.5zM469 928l-21 9l89 84l17 -13z" glyph-name="Aringacute.ss01"></glyph>
    <glyph d="M127 0v407q0 99 34 165t96 98.5t145 32.5q84 0 145.5 -32.5t95.5 -98.5t34 -165v-407h-20v409q0 138 -68 206.5t-187 68.5t-187 -68.5t-68 -206.5v-409h-20zM141 231v19h525v-19h-525zM465 769q-21 0 -37.5 10.5t-30 24t-27.5 24t-31 10.5q-24 0 -38 -18t-16 -49h-19
q2 39 21.5 62.5t51.5 23.5q21 0 37.5 -10.5t30 -24t27.5 -24t31 -10.5q24 0 38.5 18t15.5 47h19q-1 -37 -21 -60.5t-52 -23.5z" glyph-name="Atilde.ss01"></glyph>
    <glyph d="M551 0v700h451v-19h-431v-316h386v-19h-386v-327h446v-19h-466zM129 241v19h432v-19h-432zM115 0v405q0 140 69.5 217.5t195.5 77.5h181v-19h-181q-118 0 -181.5 -72t-63.5 -204v-405h-20z" glyph-name="AE.ss01"></glyph>
    <glyph d="M551 0v700h451v-19h-431v-316h386v-19h-386v-327h446v-19h-466zM129 241v19h432v-19h-432zM115 0v405q0 140 69.5 217.5t195.5 77.5h181v-19h-181q-118 0 -181.5 -72t-63.5 -204v-405h-20zM479 757l140 110h40l-150 -110h-30z" glyph-name="AEacute.ss01"></glyph>
    <glyph d="M133 0v700h265q111 0 194 -45.5t129 -124.5t46 -180t-46 -180t-129 -124.5t-194 -45.5h-265zM153 19h243q107 0 186 43t122 117.5t43 170.5t-43 170.5t-122 117.5t-186 43h-243v-662zM866 0v15l512 673l1 -7h-513v19h535v-15l-512 -673l-1 7h528v-19h-550zM932 346v19
h209h7h184v-19h-198h-7h-195zM1120 757l-122 110h27l114 -96h-6l114 96h27l-122 -110h-32z" glyph-name="uni01C4.ss01"></glyph>
    <glyph d="M133 0v700h265q111 0 194 -45.5t129 -124.5t46 -180t-46 -180t-129 -124.5t-194 -45.5h-265zM153 19h243q107 0 186 43t122 117.5t43 170.5t-43 170.5t-122 117.5t-186 43h-243v-662zM877 0v15l369 489l8 -6h-372v19h387v-15l-369 -489l-12 6h386v-19h-397zM1069 252h-7
h-140v19h154h7h146v-19h-160zM1060 607l-122 110h27l114 -96h-6l114 96h27l-122 -110h-32z" glyph-name="uni01C5.ss01"></glyph>
    <glyph d="M324 -3q-86 0 -143.5 24.5t-86.5 66.5t-29 96q0 59 30.5 98.5t83 59.5t117.5 20l4 -13q-65 0 -111 21t-70 60t-24 91q0 50 27.5 91.5t82 66t134.5 24.5q62 0 119.5 -15.5t97.5 -44.5l-10 -16q-44 28 -96 42.5t-110 14.5q-112 0 -168.5 -47t-56.5 -117q0 -74 51 -114.5
t139 -40.5h164v-19h-163q-64 0 -114 -17.5t-78.5 -53t-28.5 -90.5q0 -75 59.5 -122t180.5 -47q81 0 146.5 23.5t103.5 65.5l15 -13q-40 -45 -109.5 -70t-156.5 -25z" glyph-name="E.ss01"></glyph>
    <glyph d="M324 -3q-86 0 -143.5 24.5t-86.5 66.5t-29 96q0 59 30.5 98.5t83 59.5t117.5 20l4 -13q-65 0 -111 21t-70 60t-24 91q0 50 27.5 91.5t82 66t134.5 24.5q62 0 119.5 -15.5t97.5 -44.5l-10 -16q-44 28 -96 42.5t-110 14.5q-112 0 -168.5 -47t-56.5 -117q0 -74 51 -114.5
t139 -40.5h164v-19h-163q-64 0 -114 -17.5t-78.5 -53t-28.5 -90.5q0 -75 59.5 -122t180.5 -47q81 0 146.5 23.5t103.5 65.5l15 -13q-40 -45 -109.5 -70t-156.5 -25zM291 757l140 110h40l-150 -110h-30z" glyph-name="Eacute.ss01"></glyph>
    <glyph d="M324 -3q-86 0 -143.5 24.5t-86.5 66.5t-29 96q0 59 30.5 98.5t83 59.5t117.5 20l4 -13q-65 0 -111 21t-70 60t-24 91q0 50 27.5 91.5t82 66t134.5 24.5q62 0 119.5 -15.5t97.5 -44.5l-10 -16q-44 28 -96 42.5t-110 14.5q-112 0 -168.5 -47t-56.5 -117q0 -74 51 -114.5
t139 -40.5h164v-19h-163q-64 0 -114 -17.5t-78.5 -53t-28.5 -90.5q0 -75 59.5 -122t180.5 -47q81 0 146.5 23.5t103.5 65.5l15 -13q-40 -45 -109.5 -70t-156.5 -25zM336 754q-54 0 -92 30.5t-40 82.5h19q2 -43 34.5 -68.5t78.5 -25.5q47 0 79.5 25.5t33.5 68.5h19
q-1 -52 -39.5 -82.5t-92.5 -30.5z" glyph-name="Ebreve.ss01"></glyph>
    <glyph d="M324 -3q-86 0 -143.5 24.5t-86.5 66.5t-29 96q0 59 30.5 98.5t83 59.5t117.5 20l4 -13q-65 0 -111 21t-70 60t-24 91q0 50 27.5 91.5t82 66t134.5 24.5q62 0 119.5 -15.5t97.5 -44.5l-10 -16q-44 28 -96 42.5t-110 14.5q-112 0 -168.5 -47t-56.5 -117q0 -74 51 -114.5
t139 -40.5h164v-19h-163q-64 0 -114 -17.5t-78.5 -53t-28.5 -90.5q0 -75 59.5 -122t180.5 -47q81 0 146.5 23.5t103.5 65.5l15 -13q-40 -45 -109.5 -70t-156.5 -25zM320 757l-122 110h27l114 -96h-6l114 96h27l-122 -110h-32z" glyph-name="Ecaron.ss01"></glyph>
    <glyph d="M324 -3q-86 0 -143.5 24.5t-86.5 66.5t-29 96q0 59 30.5 98.5t83 59.5t117.5 20l4 -13q-65 0 -111 21t-70 60t-24 91q0 50 27.5 91.5t82 66t134.5 24.5q62 0 119.5 -15.5t97.5 -44.5l-10 -16q-44 28 -96 42.5t-110 14.5q-112 0 -168.5 -47t-56.5 -117q0 -74 51 -114.5
t139 -40.5h164v-19h-163q-64 0 -114 -17.5t-78.5 -53t-28.5 -90.5q0 -75 59.5 -122t180.5 -47q81 0 146.5 23.5t103.5 65.5l15 -13q-40 -45 -109.5 -70t-156.5 -25zM320 -213q-21 0 -39 6.5t-35 20.5l11 15q12 -11 28.5 -17t33.5 -6q31 0 51.5 15.5t20.5 44.5q0 26 -18.5 43
t-52.5 17h-16l22 79h19l-17 -61q38 -2 60.5 -23t22.5 -55q0 -36 -26 -57.5t-65 -21.5zM336 754q-54 0 -92 30.5t-40 82.5h19q2 -43 34.5 -68.5t78.5 -25.5q47 0 79.5 25.5t33.5 68.5h19q-1 -52 -39.5 -82.5t-92.5 -30.5z" glyph-name="uni1E1C.ss01"></glyph>
    <glyph d="M324 -3q-86 0 -143.5 24.5t-86.5 66.5t-29 96q0 59 30.5 98.5t83 59.5t117.5 20l4 -13q-65 0 -111 21t-70 60t-24 91q0 50 27.5 91.5t82 66t134.5 24.5q62 0 119.5 -15.5t97.5 -44.5l-10 -16q-44 28 -96 42.5t-110 14.5q-112 0 -168.5 -47t-56.5 -117q0 -74 51 -114.5
t139 -40.5h164v-19h-163q-64 0 -114 -17.5t-78.5 -53t-28.5 -90.5q0 -75 59.5 -122t180.5 -47q81 0 146.5 23.5t103.5 65.5l15 -13q-40 -45 -109.5 -70t-156.5 -25zM198 757l122 110h32l122 -110h-27l-114 96h6l-114 -96h-27z" glyph-name="Ecircumflex.ss01"></glyph>
    <glyph d="M324 -3q-86 0 -143.5 24.5t-86.5 66.5t-29 96q0 59 30.5 98.5t83 59.5t117.5 20l4 -13q-65 0 -111 21t-70 60t-24 91q0 50 27.5 91.5t82 66t134.5 24.5q62 0 119.5 -15.5t97.5 -44.5l-10 -16q-44 28 -96 42.5t-110 14.5q-112 0 -168.5 -47t-56.5 -117q0 -74 51 -114.5
t139 -40.5h164v-19h-163q-64 0 -114 -17.5t-78.5 -53t-28.5 -90.5q0 -75 59.5 -122t180.5 -47q81 0 146.5 23.5t103.5 65.5l15 -13q-40 -45 -109.5 -70t-156.5 -25zM198 757l123 80h30l123 -80h-30l-113 67h10l-113 -67h-30zM411 832l127 100h40l-137 -100h-30z" glyph-name="uni1EBE.ss01"></glyph>
    <glyph d="M324 -3q-86 0 -143.5 24.5t-86.5 66.5t-29 96q0 59 30.5 98.5t83 59.5t117.5 20l4 -13q-65 0 -111 21t-70 60t-24 91q0 50 27.5 91.5t82 66t134.5 24.5q62 0 119.5 -15.5t97.5 -44.5l-10 -16q-44 28 -96 42.5t-110 14.5q-112 0 -168.5 -47t-56.5 -117q0 -74 51 -114.5
t139 -40.5h164v-19h-163q-64 0 -114 -17.5t-78.5 -53t-28.5 -90.5q0 -75 59.5 -122t180.5 -47q81 0 146.5 23.5t103.5 65.5l15 -13q-40 -45 -109.5 -70t-156.5 -25zM336 -176q-10 0 -18 8t-8 18q0 11 8 18.5t18 7.5q11 0 18.5 -7.5t7.5 -18.5q0 -10 -7.5 -18t-18.5 -8z
M198 757l122 110h32l122 -110h-27l-114 96h6l-114 -96h-27z" glyph-name="uni1EC6.ss01"></glyph>
    <glyph d="M324 -3q-86 0 -143.5 24.5t-86.5 66.5t-29 96q0 59 30.5 98.5t83 59.5t117.5 20l4 -13q-65 0 -111 21t-70 60t-24 91q0 50 27.5 91.5t82 66t134.5 24.5q62 0 119.5 -15.5t97.5 -44.5l-10 -16q-44 28 -96 42.5t-110 14.5q-112 0 -168.5 -47t-56.5 -117q0 -74 51 -114.5
t139 -40.5h164v-19h-163q-64 0 -114 -17.5t-78.5 -53t-28.5 -90.5q0 -75 59.5 -122t180.5 -47q81 0 146.5 23.5t103.5 65.5l15 -13q-40 -45 -109.5 -70t-156.5 -25zM198 757l123 80h30l123 -80h-30l-113 67h10l-113 -67h-30zM471 832l-137 100h40l127 -100h-30z" glyph-name="uni1EC0.ss01"></glyph>
    <glyph d="M324 -3q-86 0 -143.5 24.5t-86.5 66.5t-29 96q0 59 30.5 98.5t83 59.5t117.5 20l4 -13q-65 0 -111 21t-70 60t-24 91q0 50 27.5 91.5t82 66t134.5 24.5q62 0 119.5 -15.5t97.5 -44.5l-10 -16q-44 28 -96 42.5t-110 14.5q-112 0 -168.5 -47t-56.5 -117q0 -74 51 -114.5
t139 -40.5h164v-19h-163q-64 0 -114 -17.5t-78.5 -53t-28.5 -90.5q0 -75 59.5 -122t180.5 -47q81 0 146.5 23.5t103.5 65.5l15 -13q-40 -45 -109.5 -70t-156.5 -25zM198 757l123 80h30l123 -80h-30l-113 67h10l-113 -67h-30zM439 818l-10 15q21 10 33 24.5t12 31.5
q0 16 -11.5 26t-30.5 10q-24 0 -43 -13l-8 16q11 8 24.5 12t27.5 4q28 0 44 -15t16 -40q0 -22 -13.5 -40.5t-40.5 -30.5z" glyph-name="uni1EC2.ss01"></glyph>
    <glyph d="M324 -3q-86 0 -143.5 24.5t-86.5 66.5t-29 96q0 59 30.5 98.5t83 59.5t117.5 20l4 -13q-65 0 -111 21t-70 60t-24 91q0 50 27.5 91.5t82 66t134.5 24.5q62 0 119.5 -15.5t97.5 -44.5l-10 -16q-44 28 -96 42.5t-110 14.5q-112 0 -168.5 -47t-56.5 -117q0 -74 51 -114.5
t139 -40.5h164v-19h-163q-64 0 -114 -17.5t-78.5 -53t-28.5 -90.5q0 -75 59.5 -122t180.5 -47q81 0 146.5 23.5t103.5 65.5l15 -13q-40 -45 -109.5 -70t-156.5 -25zM198 757l123 80h30l123 -80h-30l-113 67h10l-113 -67h-30zM397 870q-26 0 -45.5 13.5t-37 27t-39.5 13.5
q-24 0 -38.5 -13.5t-15.5 -38.5h-19q1 32 21 51.5t52 19.5q27 0 46 -13.5t37 -27t39 -13.5q24 0 38.5 13t15.5 37h19q-1 -31 -21 -50t-52 -19z" glyph-name="uni1EC4.ss01"></glyph>
    <glyph d="M324 -3q-86 0 -143.5 24.5t-86.5 66.5t-29 96q0 59 30.5 98.5t83 59.5t117.5 20l4 -13q-65 0 -111 21t-70 60t-24 91q0 50 27.5 91.5t82 66t134.5 24.5q62 0 119.5 -15.5t97.5 -44.5l-10 -16q-44 28 -96 42.5t-110 14.5q-112 0 -168.5 -47t-56.5 -117q0 -74 51 -114.5
t139 -40.5h164v-19h-163q-64 0 -114 -17.5t-78.5 -53t-28.5 -90.5q0 -75 59.5 -122t180.5 -47q81 0 146.5 23.5t103.5 65.5l15 -13q-40 -45 -109.5 -70t-156.5 -25zM392 757l-118 110h34l111 -110h-27zM253 757l-118 110h34l111 -110h-27z" glyph-name="uni0204.ss01"></glyph>
    <glyph d="M324 -3q-86 0 -143.5 24.5t-86.5 66.5t-29 96q0 59 30.5 98.5t83 59.5t117.5 20l4 -13q-65 0 -111 21t-70 60t-24 91q0 50 27.5 91.5t82 66t134.5 24.5q62 0 119.5 -15.5t97.5 -44.5l-10 -16q-44 28 -96 42.5t-110 14.5q-112 0 -168.5 -47t-56.5 -117q0 -74 51 -114.5
t139 -40.5h164v-19h-163q-64 0 -114 -17.5t-78.5 -53t-28.5 -90.5q0 -75 59.5 -122t180.5 -47q81 0 146.5 23.5t103.5 65.5l15 -13q-40 -45 -109.5 -70t-156.5 -25zM418 791q-10 0 -18 8t-8 18q0 11 8 18.5t18 7.5q11 0 18.5 -7.5t7.5 -18.5q0 -10 -7.5 -18t-18.5 -8z
M254 791q-10 0 -18 8t-8 18q0 11 8 18.5t18 7.5q11 0 18.5 -7.5t7.5 -18.5q0 -10 -7.5 -18t-18.5 -8z" glyph-name="Edieresis.ss01"></glyph>
    <glyph d="M324 -3q-86 0 -143.5 24.5t-86.5 66.5t-29 96q0 59 30.5 98.5t83 59.5t117.5 20l4 -13q-65 0 -111 21t-70 60t-24 91q0 50 27.5 91.5t82 66t134.5 24.5q62 0 119.5 -15.5t97.5 -44.5l-10 -16q-44 28 -96 42.5t-110 14.5q-112 0 -168.5 -47t-56.5 -117q0 -74 51 -114.5
t139 -40.5h164v-19h-163q-64 0 -114 -17.5t-78.5 -53t-28.5 -90.5q0 -75 59.5 -122t180.5 -47q81 0 146.5 23.5t103.5 65.5l15 -13q-40 -45 -109.5 -70t-156.5 -25zM336 791q-10 0 -18 8t-8 18q0 11 8 18.5t18 7.5q11 0 18.5 -7.5t7.5 -18.5q0 -10 -7.5 -18t-18.5 -8z" glyph-name="Edotaccent.ss01"></glyph>
    <glyph d="M324 -3q-86 0 -143.5 24.5t-86.5 66.5t-29 96q0 59 30.5 98.5t83 59.5t117.5 20l4 -13q-65 0 -111 21t-70 60t-24 91q0 50 27.5 91.5t82 66t134.5 24.5q62 0 119.5 -15.5t97.5 -44.5l-10 -16q-44 28 -96 42.5t-110 14.5q-112 0 -168.5 -47t-56.5 -117q0 -74 51 -114.5
t139 -40.5h164v-19h-163q-64 0 -114 -17.5t-78.5 -53t-28.5 -90.5q0 -75 59.5 -122t180.5 -47q81 0 146.5 23.5t103.5 65.5l15 -13q-40 -45 -109.5 -70t-156.5 -25zM336 -176q-10 0 -18 8t-8 18q0 11 8 18.5t18 7.5q11 0 18.5 -7.5t7.5 -18.5q0 -10 -7.5 -18t-18.5 -8z" glyph-name="uni1EB8.ss01"></glyph>
    <glyph d="M324 -3q-86 0 -143.5 24.5t-86.5 66.5t-29 96q0 59 30.5 98.5t83 59.5t117.5 20l4 -13q-65 0 -111 21t-70 60t-24 91q0 50 27.5 91.5t82 66t134.5 24.5q62 0 119.5 -15.5t97.5 -44.5l-10 -16q-44 28 -96 42.5t-110 14.5q-112 0 -168.5 -47t-56.5 -117q0 -74 51 -114.5
t139 -40.5h164v-19h-163q-64 0 -114 -17.5t-78.5 -53t-28.5 -90.5q0 -75 59.5 -122t180.5 -47q81 0 146.5 23.5t103.5 65.5l15 -13q-40 -45 -109.5 -70t-156.5 -25zM351 757l-150 110h40l140 -110h-30z" glyph-name="Egrave.ss01"></glyph>
    <glyph d="M324 -3q-86 0 -143.5 24.5t-86.5 66.5t-29 96q0 59 30.5 98.5t83 59.5t117.5 20l4 -13q-65 0 -111 21t-70 60t-24 91q0 50 27.5 91.5t82 66t134.5 24.5q62 0 119.5 -15.5t97.5 -44.5l-10 -16q-44 28 -96 42.5t-110 14.5q-112 0 -168.5 -47t-56.5 -117q0 -74 51 -114.5
t139 -40.5h164v-19h-163q-64 0 -114 -17.5t-78.5 -53t-28.5 -90.5q0 -75 59.5 -122t180.5 -47q81 0 146.5 23.5t103.5 65.5l15 -13q-40 -45 -109.5 -70t-156.5 -25zM338 753l-10 16q31 14 47 33t16 44q0 23 -16 38.5t-42 15.5q-33 0 -62 -19l-8 17q14 10 33 15.5t36 5.5
q36 0 57.5 -19.5t21.5 -52.5q0 -30 -17.5 -53t-55.5 -41z" glyph-name="uni1EBA.ss01"></glyph>
    <glyph d="M324 -3q-86 0 -143.5 24.5t-86.5 66.5t-29 96q0 59 30.5 98.5t83 59.5t117.5 20l4 -13q-65 0 -111 21t-70 60t-24 91q0 50 27.5 91.5t82 66t134.5 24.5q62 0 119.5 -15.5t97.5 -44.5l-10 -16q-44 28 -96 42.5t-110 14.5q-112 0 -168.5 -47t-56.5 -117q0 -74 51 -114.5
t139 -40.5h164v-19h-163q-64 0 -114 -17.5t-78.5 -53t-28.5 -90.5q0 -75 59.5 -122t180.5 -47q81 0 146.5 23.5t103.5 65.5l15 -13q-40 -45 -109.5 -70t-156.5 -25zM204 757q2 53 40 83t92 30t92.5 -30t39.5 -83h-19q-1 44 -33.5 69t-79.5 25q-46 0 -78.5 -25t-34.5 -69h-19
z" glyph-name="uni0206.ss01"></glyph>
    <glyph d="M324 -3q-86 0 -143.5 24.5t-86.5 66.5t-29 96q0 59 30.5 98.5t83 59.5t117.5 20l4 -13q-65 0 -111 21t-70 60t-24 91q0 50 27.5 91.5t82 66t134.5 24.5q62 0 119.5 -15.5t97.5 -44.5l-10 -16q-44 28 -96 42.5t-110 14.5q-112 0 -168.5 -47t-56.5 -117q0 -74 51 -114.5
t139 -40.5h164v-19h-163q-64 0 -114 -17.5t-78.5 -53t-28.5 -90.5q0 -75 59.5 -122t180.5 -47q81 0 146.5 23.5t103.5 65.5l15 -13q-40 -45 -109.5 -70t-156.5 -25zM200 802v20h272v-20h-272z" glyph-name="Emacron.ss01"></glyph>
    <glyph d="M324 -3q-86 0 -143.5 24.5t-86.5 66.5t-29 96q0 59 30.5 98.5t83 59.5t117.5 20l4 -13q-65 0 -111 21t-70 60t-24 91q0 50 27.5 91.5t82 66t134.5 24.5q62 0 119.5 -15.5t97.5 -44.5l-10 -16q-44 28 -96 42.5t-110 14.5q-112 0 -168.5 -47t-56.5 -117q0 -74 51 -114.5
t139 -40.5h164v-19h-163q-64 0 -114 -17.5t-78.5 -53t-28.5 -90.5q0 -75 59.5 -122t180.5 -47q81 0 146.5 23.5t103.5 65.5l15 -13q-40 -45 -109.5 -70t-156.5 -25zM200 787v20h272v-20h-272zM291 870l127 100h40l-137 -100h-30z" glyph-name="uni1E16.ss01"></glyph>
    <glyph d="M324 -3q-86 0 -143.5 24.5t-86.5 66.5t-29 96q0 59 30.5 98.5t83 59.5t117.5 20l4 -13q-65 0 -111 21t-70 60t-24 91q0 50 27.5 91.5t82 66t134.5 24.5q62 0 119.5 -15.5t97.5 -44.5l-10 -16q-44 28 -96 42.5t-110 14.5q-112 0 -168.5 -47t-56.5 -117q0 -74 51 -114.5
t139 -40.5h164v-19h-163q-64 0 -114 -17.5t-78.5 -53t-28.5 -90.5q0 -75 59.5 -122t180.5 -47q81 0 146.5 23.5t103.5 65.5l15 -13q-40 -45 -109.5 -70t-156.5 -25zM200 787v20h272v-20h-272zM351 870l-137 100h40l127 -100h-30z" glyph-name="uni1E14.ss01"></glyph>
    <glyph d="M507 -213q-39 0 -64.5 23t-25.5 62q0 32 17 73t72 93l2 -5q-40 -18 -85.5 -27t-98.5 -9q-86 0 -143.5 24.5t-86.5 66.5t-29 96q0 59 30.5 98.5t83 59.5t117.5 20l4 -13q-65 0 -111 21t-70 60t-24 91q0 50 27.5 91.5t82 66t134.5 24.5q62 0 119.5 -15.5t97.5 -44.5
l-10 -16q-44 28 -96 42.5t-110 14.5q-112 0 -168.5 -47t-56.5 -117q0 -74 51 -114.5t139 -40.5h164v-19h-163q-64 0 -114 -17.5t-78.5 -53t-28.5 -90.5q0 -75 59.5 -122t180.5 -47q81 0 146.5 25.5t103.5 63.5l14 -15q-65 -54 -98 -94.5t-43.5 -70.5t-10.5 -53q0 -32 20 -49
t51 -17q17 0 33.5 6t28.5 17l11 -15q-16 -14 -34.5 -20.5t-39.5 -6.5z" glyph-name="Eogonek.ss01"></glyph>
    <glyph d="M324 -3q-86 0 -143.5 24.5t-86.5 66.5t-29 96q0 59 30.5 98.5t83 59.5t117.5 20l4 -13q-65 0 -111 21t-70 60t-24 91q0 50 27.5 91.5t82 66t134.5 24.5q62 0 119.5 -15.5t97.5 -44.5l-10 -16q-44 28 -96 42.5t-110 14.5q-112 0 -168.5 -47t-56.5 -117q0 -74 51 -114.5
t139 -40.5h164v-19h-163q-64 0 -114 -17.5t-78.5 -53t-28.5 -90.5q0 -75 59.5 -122t180.5 -47q81 0 146.5 23.5t103.5 65.5l15 -13q-40 -45 -109.5 -70t-156.5 -25zM399 769q-21 0 -37.5 10.5t-30 24t-27.5 24t-31 10.5q-24 0 -38 -18t-16 -49h-19q2 39 21.5 62.5t51.5 23.5
q21 0 37.5 -10.5t30 -24t27.5 -24t31 -10.5q24 0 38.5 18t15.5 47h19q-1 -37 -21 -60.5t-52 -23.5z" glyph-name="uni1EBC.ss01"></glyph>
    <glyph d="M127 0v482q0 98 60 159.5t185 61.5q60 0 112.5 -14.5t92.5 -46.5l-13 -16q-39 31 -87.5 44.5t-104.5 13.5q-116 0 -170.5 -54.5t-54.5 -150.5v-479h-20zM143 326v19h367v-19h-367z" glyph-name="F.ss01"></glyph>
    <glyph d="M408 -3q-66 0 -128 23t-112 68t-79.5 111t-29.5 151q0 76 27 140t76 112t115 74.5t144 26.5q71 0 133.5 -22t107.5 -67l-12 -14q-48 46 -105.5 65t-123.5 19q-73 0 -135.5 -25.5t-109 -71t-72 -106t-25.5 -131.5q0 -79 27.5 -141t74 -105t105.5 -65.5t122 -22.5
q65 0 129 25t113 79l7 -21q-50 -52 -115.5 -77t-133.5 -25zM643 0v96v4v243h19v-343h-19z" glyph-name="G.ss01"></glyph>
    <glyph d="M408 -3q-66 0 -128 23t-112 68t-79.5 111t-29.5 151q0 76 27 140t76 112t115 74.5t144 26.5q71 0 133.5 -22t107.5 -67l-12 -14q-48 46 -105.5 65t-123.5 19q-73 0 -135.5 -25.5t-109 -71t-72 -106t-25.5 -131.5q0 -79 27.5 -141t74 -105t105.5 -65.5t122 -22.5
q65 0 129 25t113 79l7 -21q-50 -52 -115.5 -77t-133.5 -25zM643 0v96v4v243h19v-343h-19zM402 754q-54 0 -92 30.5t-40 82.5h19q2 -43 34.5 -68.5t78.5 -25.5q47 0 79.5 25.5t33.5 68.5h19q-1 -52 -39.5 -82.5t-92.5 -30.5z" glyph-name="Gbreve.ss01"></glyph>
    <glyph d="M408 -3q-66 0 -128 23t-112 68t-79.5 111t-29.5 151q0 76 27 140t76 112t115 74.5t144 26.5q71 0 133.5 -22t107.5 -67l-12 -14q-48 46 -105.5 65t-123.5 19q-73 0 -135.5 -25.5t-109 -71t-72 -106t-25.5 -131.5q0 -79 27.5 -141t74 -105t105.5 -65.5t122 -22.5
q65 0 129 25t113 79l7 -21q-50 -52 -115.5 -77t-133.5 -25zM643 0v96v4v243h19v-343h-19zM386 757l-122 110h27l114 -96h-6l114 96h27l-122 -110h-32z" glyph-name="Gcaron.ss01"></glyph>
    <glyph d="M408 -3q-66 0 -128 23t-112 68t-79.5 111t-29.5 151q0 76 27 140t76 112t115 74.5t144 26.5q71 0 133.5 -22t107.5 -67l-12 -14q-48 46 -105.5 65t-123.5 19q-73 0 -135.5 -25.5t-109 -71t-72 -106t-25.5 -131.5q0 -79 27.5 -141t74 -105t105.5 -65.5t122 -22.5
q65 0 129 25t113 79l7 -21q-50 -52 -115.5 -77t-133.5 -25zM643 0v96v4v243h19v-343h-19zM264 757l122 110h32l122 -110h-27l-114 96h6l-114 -96h-27z" glyph-name="Gcircumflex.ss01"></glyph>
    <glyph d="M408 -3q-66 0 -128 23t-112 68t-79.5 111t-29.5 151q0 76 27 140t76 112t115 74.5t144 26.5q71 0 133.5 -22t107.5 -67l-12 -14q-48 46 -105.5 65t-123.5 19q-73 0 -135.5 -25.5t-109 -71t-72 -106t-25.5 -131.5q0 -79 27.5 -141t74 -105t105.5 -65.5t122 -22.5
q65 0 129 25t113 79l7 -21q-50 -52 -115.5 -77t-133.5 -25zM643 0v96v4v243h19v-343h-19zM381 -259l20 94l1 -11q-10 0 -18 8t-8 18q0 11 7.5 18.5t18.5 7.5q12 0 19 -8.5t7 -17.5q0 -8 -2 -16l-4 -16l-23 -77h-18z" glyph-name="uni0122.ss01"></glyph>
    <glyph d="M408 -3q-66 0 -128 23t-112 68t-79.5 111t-29.5 151q0 76 27 140t76 112t115 74.5t144 26.5q71 0 133.5 -22t107.5 -67l-12 -14q-48 46 -105.5 65t-123.5 19q-73 0 -135.5 -25.5t-109 -71t-72 -106t-25.5 -131.5q0 -79 27.5 -141t74 -105t105.5 -65.5t122 -22.5
q65 0 129 25t113 79l7 -21q-50 -52 -115.5 -77t-133.5 -25zM643 0v96v4v243h19v-343h-19zM402 791q-10 0 -18 8t-8 18q0 11 8 18.5t18 7.5q11 0 18.5 -7.5t7.5 -18.5q0 -10 -7.5 -18t-18.5 -8z" glyph-name="Gdotaccent.ss01"></glyph>
    <glyph d="M408 -3q-66 0 -128 23t-112 68t-79.5 111t-29.5 151q0 76 27 140t76 112t115 74.5t144 26.5q71 0 133.5 -22t107.5 -67l-12 -14q-48 46 -105.5 65t-123.5 19q-73 0 -135.5 -25.5t-109 -71t-72 -106t-25.5 -131.5q0 -79 27.5 -141t74 -105t105.5 -65.5t122 -22.5
q65 0 129 25t113 79l7 -21q-50 -52 -115.5 -77t-133.5 -25zM643 0v96v4v243h19v-343h-19zM266 802v20h272v-20h-272z" glyph-name="uni1E20.ss01"></glyph>
    <glyph d="M421 224v19h360v-19h-360zM408 -3q-66 0 -128 23t-112 68t-79.5 111t-29.5 151q0 76 27 140t76 112t115 74.5t144 26.5q71 0 133.5 -22t107.5 -67l-12 -14q-48 46 -105.5 65t-123.5 19q-73 0 -135.5 -25.5t-109 -71t-72 -106t-25.5 -131.5q0 -79 27.5 -141t74 -105
t105.5 -65.5t122 -22.5q65 0 129 25t113 79l7 -21q-50 -52 -115.5 -77t-133.5 -25zM643 0v96v4v243h19v-343h-19z" glyph-name="uni01E4.ss01"></glyph>
    <glyph d="M201 10v680h20v-680h-20zM47 0v19h328v-19h-328zM47 681v19h328v-19h-328z" glyph-name="I.ss01"></glyph>
    <glyph d="M327 -103q-60 0 -113 18.5t-94 46.5l12 16q40 -29 90 -45.5t106 -16.5q111 0 175 69t64 209v506h20v-507q0 -99 -32.5 -164.5t-90.5 -98.5t-137 -33zM127 190v510h20v-510h-20z" glyph-name="IJ.ss01"></glyph>
    <glyph d="M201 10v680h20v-680h-20zM47 0v19h328v-19h-328zM47 681v19h328v-19h-328zM166 757l140 110h40l-150 -110h-30z" glyph-name="Iacute.ss01"></glyph>
    <glyph d="M327 -103q-60 0 -113 18.5t-94 46.5l12 16q40 -29 90 -45.5t106 -16.5q111 0 175 69t64 209v506h20v-507q0 -99 -32.5 -164.5t-90.5 -98.5t-137 -33zM127 190v510h20v-510h-20zM122 757l140 110h40l-150 -110h-30zM564 757l140 110h40l-150 -110h-30z" glyph-name="Iacute_J.loclNLD.ss01"></glyph>
    <glyph d="M201 10v680h20v-680h-20zM47 0v19h328v-19h-328zM47 681v19h328v-19h-328zM211 754q-54 0 -92 30.5t-40 82.5h19q2 -43 34.5 -68.5t78.5 -25.5q47 0 79.5 25.5t33.5 68.5h19q-1 -52 -39.5 -82.5t-92.5 -30.5z" glyph-name="Ibreve.ss01"></glyph>
    <glyph d="M201 10v680h20v-680h-20zM47 0v19h328v-19h-328zM47 681v19h328v-19h-328zM73 757l122 110h32l122 -110h-27l-114 96h6l-114 -96h-27z" glyph-name="Icircumflex.ss01"></glyph>
    <glyph d="M201 10v680h20v-680h-20zM47 0v19h328v-19h-328zM47 681v19h328v-19h-328zM267 757l-118 110h34l111 -110h-27zM128 757l-118 110h34l111 -110h-27z" glyph-name="uni0208.ss01"></glyph>
    <glyph d="M201 10v680h20v-680h-20zM47 0v19h328v-19h-328zM47 681v19h328v-19h-328zM293 791q-10 0 -18 8t-8 18q0 11 8 18.5t18 7.5q11 0 18.5 -7.5t7.5 -18.5q0 -10 -7.5 -18t-18.5 -8zM129 791q-10 0 -18 8t-8 18q0 11 8 18.5t18 7.5q11 0 18.5 -7.5t7.5 -18.5q0 -10 -7.5 -18
t-18.5 -8z" glyph-name="Idieresis.ss01"></glyph>
    <glyph d="M201 10v680h20v-680h-20zM47 0v19h328v-19h-328zM47 681v19h328v-19h-328zM293 791q-10 0 -18 8t-8 18q0 11 8 18.5t18 7.5q11 0 18.5 -7.5t7.5 -18.5q0 -10 -7.5 -18t-18.5 -8zM129 791q-10 0 -18 8t-8 18q0 11 8 18.5t18 7.5q11 0 18.5 -7.5t7.5 -18.5q0 -10 -7.5 -18
t-18.5 -8zM166 870l127 100h40l-137 -100h-30z" glyph-name="uni1E2E.ss01"></glyph>
    <glyph d="M201 10v680h20v-680h-20zM47 0v19h328v-19h-328zM47 681v19h328v-19h-328zM211 791q-10 0 -18 8t-8 18q0 11 8 18.5t18 7.5q11 0 18.5 -7.5t7.5 -18.5q0 -10 -7.5 -18t-18.5 -8z" glyph-name="Idotaccent.ss01"></glyph>
    <glyph d="M201 10v680h20v-680h-20zM47 0v19h328v-19h-328zM47 681v19h328v-19h-328zM211 -176q-10 0 -18 8t-8 18q0 11 8 18.5t18 7.5q11 0 18.5 -7.5t7.5 -18.5q0 -10 -7.5 -18t-18.5 -8z" glyph-name="uni1ECA.ss01"></glyph>
    <glyph d="M201 10v680h20v-680h-20zM47 0v19h328v-19h-328zM47 681v19h328v-19h-328zM226 757l-150 110h40l140 -110h-30z" glyph-name="Igrave.ss01"></glyph>
    <glyph d="M201 10v680h20v-680h-20zM47 0v19h328v-19h-328zM47 681v19h328v-19h-328zM213 753l-10 16q31 14 47 33t16 44q0 23 -16 38.5t-42 15.5q-33 0 -62 -19l-8 17q14 10 33 15.5t36 5.5q36 0 57.5 -19.5t21.5 -52.5q0 -30 -17.5 -53t-55.5 -41z" glyph-name="uni1EC8.ss01"></glyph>
    <glyph d="M201 10v680h20v-680h-20zM47 0v19h328v-19h-328zM47 681v19h328v-19h-328zM79 757q2 53 40 83t92 30t92.5 -30t39.5 -83h-19q-1 44 -33.5 69t-79.5 25q-46 0 -78.5 -25t-34.5 -69h-19z" glyph-name="uni020A.ss01"></glyph>
    <glyph d="M201 10v680h20v-680h-20zM47 0v19h328v-19h-328zM47 681v19h328v-19h-328zM75 802v20h272v-20h-272z" glyph-name="Imacron.ss01"></glyph>
    <glyph d="M201 10v680h20v-680h-20zM47 0v19h328v-19h-328zM47 681v19h328v-19h-328zM213 -213q-30 0 -48.5 22t-18.5 56q0 28 12 68t55 84l8 -17q-39 -44 -47 -76.5t-8 -57.5q0 -30 14 -45.5t33 -15.5q13 0 23 5.5t17 14.5l11 -14q-19 -24 -51 -24z" glyph-name="Iogonek.ss01"></glyph>
    <glyph d="M201 10v680h20v-680h-20zM47 0v19h328v-19h-328zM47 681v19h328v-19h-328zM274 769q-21 0 -37.5 10.5t-30 24t-27.5 24t-31 10.5q-24 0 -38 -18t-16 -49h-19q2 39 21.5 62.5t51.5 23.5q21 0 37.5 -10.5t30 -24t27.5 -24t31 -10.5q24 0 38.5 18t15.5 47h19
q-1 -37 -21 -60.5t-52 -23.5z" glyph-name="Itilde.ss01"></glyph>
    <glyph d="M178 -103q-53 0 -99.5 26.5t-74.5 72.5l14 12q29 -44 70.5 -68t90.5 -24q151 0 151 180v585h-262v19h282v-606q0 -98 -43 -147.5t-129 -49.5z" glyph-name="J.ss01"></glyph>
    <glyph d="M178 -103q-53 0 -99.5 26.5t-74.5 72.5l14 12q29 -44 70.5 -68t90.5 -24q151 0 151 180v585h-262v19h282v-606q0 -98 -43 -147.5t-129 -49.5zM71 757l122 110h32l122 -110h-27l-114 96h6l-114 -96h-27z" glyph-name="Jcircumflex.ss01"></glyph>
    <glyph d="M133 0v700h20v-681h417v-19h-437zM788 -103q-53 0 -99.5 26.5t-74.5 72.5l14 12q29 -44 70.5 -68t90.5 -24q151 0 151 180v585h-262v19h282v-606q0 -98 -43 -147.5t-129 -49.5z" glyph-name="uni01C7.ss01"></glyph>
    <glyph d="M851 703q113 0 179.5 -65.5t66.5 -195.5v-442h-20v441q0 122 -59.5 182.5t-167.5 60.5q-106 0 -166 -63t-60 -200v-421h-20v441q0 122 -59 182.5t-167 60.5q-71 0 -121.5 -28t-77 -86t-26.5 -149v-421h-20v700h20v-157l-2 2q26 82 84.5 120t143.5 38q94 0 156.5 -45.5
t82.5 -137.5h-4q23 95 85 139t152 44z" glyph-name="M.ss01"></glyph>
    <glyph d="M851 703q113 0 179.5 -65.5t66.5 -195.5v-442h-20v441q0 122 -59.5 182.5t-167.5 60.5q-106 0 -166 -63t-60 -200v-421h-20v441q0 122 -59 182.5t-167 60.5q-71 0 -121.5 -28t-77 -86t-26.5 -149v-421h-20v700h20v-157l-2 2q26 82 84.5 120t143.5 38q94 0 156.5 -45.5
t82.5 -137.5h-4q23 95 85 139t152 44zM614 -176q-10 0 -18 8t-8 18q0 11 8 18.5t18 7.5q11 0 18.5 -7.5t7.5 -18.5q0 -10 -7.5 -18t-18.5 -8z" glyph-name="uni1E42.ss01"></glyph>
    <glyph d="M404 703q125 0 197 -72t72 -209v-422h-20v421q0 130 -65.5 196.5t-184.5 66.5t-184.5 -69.5t-65.5 -213.5v-401h-20v700h20v-176l-2 3q26 89 92 132.5t161 43.5z" glyph-name="N.ss01"></glyph>
    <glyph d="M404 703q125 0 197 -72t72 -209v-422h-20v421q0 130 -65.5 196.5t-184.5 66.5t-184.5 -69.5t-65.5 -213.5v-401h-20v700h20v-176l-2 3q26 89 92 132.5t161 43.5zM978 -103q-53 0 -99.5 26.5t-74.5 72.5l14 12q29 -44 70.5 -68t90.5 -24q151 0 151 180v585h-262v19h282
v-606q0 -98 -43 -147.5t-129 -49.5z" glyph-name="uni01CA.ss01"></glyph>
    <glyph d="M404 703q125 0 197 -72t72 -209v-422h-20v421q0 130 -65.5 196.5t-184.5 66.5t-184.5 -69.5t-65.5 -213.5v-401h-20v700h20v-176l-2 3q26 89 92 132.5t161 43.5zM358 757l140 110h40l-150 -110h-30z" glyph-name="Nacute.ss01"></glyph>
    <glyph d="M404 703q125 0 197 -72t72 -209v-422h-20v421q0 130 -65.5 196.5t-184.5 66.5t-184.5 -69.5t-65.5 -213.5v-401h-20v700h20v-176l-2 3q26 89 92 132.5t161 43.5zM387 757l-122 110h27l114 -96h-6l114 96h27l-122 -110h-32z" glyph-name="Ncaron.ss01"></glyph>
    <glyph d="M404 703q125 0 197 -72t72 -209v-422h-20v421q0 130 -65.5 196.5t-184.5 66.5t-184.5 -69.5t-65.5 -213.5v-401h-20v700h20v-176l-2 3q26 89 92 132.5t161 43.5zM380 -259l20 94l1 -11q-10 0 -18 8t-8 18q0 11 7.5 18.5t18.5 7.5q12 0 19 -8.5t7 -17.5q0 -8 -2 -16
l-4 -16l-23 -77h-18z" glyph-name="uni0145.ss01"></glyph>
    <glyph d="M404 703q125 0 197 -72t72 -209v-422h-20v421q0 130 -65.5 196.5t-184.5 66.5t-184.5 -69.5t-65.5 -213.5v-401h-20v700h20v-176l-2 3q26 89 92 132.5t161 43.5zM403 791q-10 0 -18 8t-8 18q0 11 8 18.5t18 7.5q11 0 18.5 -7.5t7.5 -18.5q0 -10 -7.5 -18t-18.5 -8z" glyph-name="uni1E44.ss01"></glyph>
    <glyph d="M404 703q125 0 197 -72t72 -209v-422h-20v421q0 130 -65.5 196.5t-184.5 66.5t-184.5 -69.5t-65.5 -213.5v-401h-20v700h20v-176l-2 3q26 89 92 132.5t161 43.5zM401 -176q-10 0 -18 8t-8 18q0 11 8 18.5t18 7.5q11 0 18.5 -7.5t7.5 -18.5q0 -10 -7.5 -18t-18.5 -8z" glyph-name="uni1E46.ss01"></glyph>
    <glyph d="M404 703q125 0 197 -72t72 -209v-422q0 -98 -43 -147.5t-129 -49.5q-53 0 -99.5 26.5t-74.5 72.5l14 12q29 -44 70.5 -68t90.5 -24q151 0 151 180v419q0 130 -65.5 196.5t-184.5 66.5t-184.5 -69.5t-65.5 -213.5v-401h-20v700h20v-176l-2 3q26 89 92 132.5t161 43.5z" glyph-name="Eng.ss01"></glyph>
    <glyph d="M404 703q125 0 197 -72t72 -209v-422h-20v421q0 130 -65.5 196.5t-184.5 66.5t-184.5 -69.5t-65.5 -213.5v-401h-20v700h20v-176l-2 3q26 89 92 132.5t161 43.5zM818 -197q-30 0 -58 9t-46 28l14 14q34 -32 89 -32q50 0 76.5 29t26.5 84v582h20v-587q0 -57 -31.5 -92
t-90.5 -35zM930 660q-10 0 -18 8t-8 18q0 11 8 18.5t18 7.5q11 0 18.5 -7.5t7.5 -18.5q0 -10 -7.5 -18t-18.5 -8z" glyph-name="uni01CB.ss01"></glyph>
    <glyph d="M404 703q125 0 197 -72t72 -209v-422h-20v421q0 130 -65.5 196.5t-184.5 66.5t-184.5 -69.5t-65.5 -213.5v-401h-20v700h20v-176l-2 3q26 89 92 132.5t161 43.5zM265 -160v20h272v-20h-272z" glyph-name="uni1E48.ss01"></glyph>
    <glyph d="M404 703q125 0 197 -72t72 -209v-422h-20v421q0 130 -65.5 196.5t-184.5 66.5t-184.5 -69.5t-65.5 -213.5v-401h-20v700h20v-176l-2 3q26 89 92 132.5t161 43.5zM466 769q-21 0 -37.5 10.5t-30 24t-27.5 24t-31 10.5q-24 0 -38 -18t-16 -49h-19q2 39 21.5 62.5t51.5 23.5
q21 0 37.5 -10.5t30 -24t27.5 -24t31 -10.5q24 0 38.5 18t15.5 47h19q-1 -37 -21 -60.5t-52 -23.5z" glyph-name="Ntilde.ss01"></glyph>
    <glyph d="M408 -135v136v9v195h20v-195v-9v-136h-20zM418 -3q-77 0 -142.5 26.5t-114 74.5t-75.5 112t-27 140t27 140t75.5 112t114 74.5t142.5 26.5t142.5 -26.5t114 -74.5t75.5 -112t27 -140t-27 -140t-75.5 -112t-114 -74.5t-142.5 -26.5zM418 16q72 0 134 25.5t108 71t71.5 106
t25.5 131.5t-25.5 131.5t-71.5 106t-108 71t-134 25.5t-134 -25.5t-108 -71t-71.5 -106t-25.5 -131.5t25.5 -131.5t71.5 -106t108 -71t134 -25.5z" glyph-name="Q.ss01"></glyph>
    <glyph d="M408 -3q-72 0 -134 25t-109 69.5t-74 104.5l634 265l7 -17l-622 -260l6 7q41 -80 118 -127.5t174 -47.5q67 0 126.5 25.5t105 71t71.5 106t26 130.5v2q0 71 -25.5 131.5t-72 105.5t-108 70.5t-133.5 25.5q-43 0 -83.5 -8t-77 -26t-70.5 -47l-11 15q32 29 70 47.5t81.5 28
t90.5 9.5q77 0 142.5 -26.5t114 -74t75.5 -112t27 -139.5q0 -73 -27 -137t-75 -113t-111 -76.5t-136 -27.5z" glyph-name="uni018F.ss01"></glyph>
    <glyph d="M14 615l-10 16q65 38 133.5 55t135.5 17q68 0 137 -17t134 -55l-10 -16q-61 37 -129 53t-132 16t-130.5 -16t-128.5 -53zM264 0v690h20v-690h-20z" glyph-name="T.ss01"></glyph>
    <glyph d="M14 615l-10 16q65 38 133.5 55t135.5 17q68 0 137 -17t134 -55l-10 -16q-61 37 -129 53t-132 16t-130.5 -16t-128.5 -53zM264 0v690h20v-690h-20zM94 340v19h360v-19h-360z" glyph-name="Tbar.ss01"></glyph>
    <glyph d="M14 615l-10 16q65 38 133.5 55t135.5 17q68 0 137 -17t134 -55l-10 -16q-61 37 -129 53t-132 16t-130.5 -16t-128.5 -53zM264 0v690h20v-690h-20zM258 756l-122 110h27l114 -96h-6l114 96h27l-122 -110h-32z" glyph-name="Tcaron.ss01"></glyph>
    <glyph d="M14 615l-10 16q65 38 133.5 55t135.5 17q68 0 137 -17t134 -55l-10 -16q-61 37 -129 53t-132 16t-130.5 -16t-128.5 -53zM264 0v690h20v-690h-20zM258 -213q-21 0 -39 6.5t-35 20.5l11 15q12 -11 28.5 -17t33.5 -6q31 0 51.5 15.5t20.5 44.5q0 26 -18.5 43t-52.5 17h-16
l22 79h19l-17 -61q38 -2 60.5 -23t22.5 -55q0 -36 -26 -57.5t-65 -21.5z" glyph-name="uni0162.ss01"></glyph>
    <glyph d="M14 615l-10 16q65 38 133.5 55t135.5 17q68 0 137 -17t134 -55l-10 -16q-61 37 -129 53t-132 16t-130.5 -16t-128.5 -53zM264 0v690h20v-690h-20zM253 -259l20 94l1 -11q-10 0 -18 8t-8 18q0 11 7.5 18.5t18.5 7.5q12 0 19 -8.5t7 -17.5q0 -8 -2 -16l-4 -16l-23 -77h-18z" glyph-name="uni021A.ss01"></glyph>
    <glyph d="M14 615l-10 16q65 38 133.5 55t135.5 17q68 0 137 -17t134 -55l-10 -16q-61 37 -129 53t-132 16t-130.5 -16t-128.5 -53zM264 0v690h20v-690h-20zM274 -176q-10 0 -18 8t-8 18q0 11 8 18.5t18 7.5q11 0 18.5 -7.5t7.5 -18.5q0 -10 -7.5 -18t-18.5 -8z" glyph-name="uni1E6C.ss01"></glyph>
    <glyph d="M14 615l-10 16q65 38 133.5 55t135.5 17q68 0 137 -17t134 -55l-10 -16q-61 37 -129 53t-132 16t-130.5 -16t-128.5 -53zM264 0v690h20v-690h-20zM138 -160v20h272v-20h-272z" glyph-name="uni1E6E.ss01"></glyph>
    <glyph d="M394 -3q-123 0 -195 72t-72 209v422h20v-421q0 -130 65 -196.5t183 -66.5t183 69.5t65 213.5v401h20v-700h-20v176l2 -3q-26 -88 -91.5 -132t-159.5 -44z" glyph-name="U.ss01"></glyph>
    <glyph d="M394 -3q-123 0 -195 72t-72 209v422h20v-421q0 -130 65 -196.5t183 -66.5t183 69.5t65 213.5v401h20v-700h-20v176l2 -3q-26 -88 -91.5 -132t-159.5 -44zM348 757l140 110h40l-150 -110h-30z" glyph-name="Uacute.ss01"></glyph>
    <glyph d="M394 -3q-123 0 -195 72t-72 209v422h20v-421q0 -130 65 -196.5t183 -66.5t183 69.5t65 213.5v401h20v-700h-20v176l2 -3q-26 -88 -91.5 -132t-159.5 -44zM393 754q-54 0 -92 30.5t-40 82.5h19q2 -43 34.5 -68.5t78.5 -25.5q47 0 79.5 25.5t33.5 68.5h19
q-1 -52 -39.5 -82.5t-92.5 -30.5z" glyph-name="Ubreve.ss01"></glyph>
    <glyph d="M394 -3q-123 0 -195 72t-72 209v422h20v-421q0 -130 65 -196.5t183 -66.5t183 69.5t65 213.5v401h20v-700h-20v176l2 -3q-26 -88 -91.5 -132t-159.5 -44zM377 757l-122 110h27l114 -96h-6l114 96h27l-122 -110h-32z" glyph-name="uni01D3.ss01"></glyph>
    <glyph d="M394 -3q-123 0 -195 72t-72 209v422h20v-421q0 -130 65 -196.5t183 -66.5t183 69.5t65 213.5v401h20v-700h-20v176l2 -3q-26 -88 -91.5 -132t-159.5 -44zM255 757l122 110h32l122 -110h-27l-114 96h6l-114 -96h-27z" glyph-name="Ucircumflex.ss01"></glyph>
    <glyph d="M394 -3q-123 0 -195 72t-72 209v422h20v-421q0 -130 65 -196.5t183 -66.5t183 69.5t65 213.5v401h20v-700h-20v176l2 -3q-26 -88 -91.5 -132t-159.5 -44zM449 757l-118 110h34l111 -110h-27zM310 757l-118 110h34l111 -110h-27z" glyph-name="uni0214.ss01"></glyph>
    <glyph d="M394 -3q-123 0 -195 72t-72 209v422h20v-421q0 -130 65 -196.5t183 -66.5t183 69.5t65 213.5v401h20v-700h-20v176l2 -3q-26 -88 -91.5 -132t-159.5 -44zM475 791q-10 0 -18 8t-8 18q0 11 8 18.5t18 7.5q11 0 18.5 -7.5t7.5 -18.5q0 -10 -7.5 -18t-18.5 -8zM311 791
q-10 0 -18 8t-8 18q0 11 8 18.5t18 7.5q11 0 18.5 -7.5t7.5 -18.5q0 -10 -7.5 -18t-18.5 -8z" glyph-name="Udieresis.ss01"></glyph>
    <glyph d="M394 -3q-123 0 -195 72t-72 209v422h20v-421q0 -130 65 -196.5t183 -66.5t183 69.5t65 213.5v401h20v-700h-20v176l2 -3q-26 -88 -91.5 -132t-159.5 -44zM393 -176q-10 0 -18 8t-8 18q0 11 8 18.5t18 7.5q11 0 18.5 -7.5t7.5 -18.5q0 -10 -7.5 -18t-18.5 -8z" glyph-name="uni1EE4.ss01"></glyph>
    <glyph d="M394 -3q-123 0 -195 72t-72 209v422h20v-421q0 -130 65 -196.5t183 -66.5t183 69.5t65 213.5v401h20v-700h-20v176l2 -3q-26 -88 -91.5 -132t-159.5 -44zM408 757l-150 110h40l140 -110h-30z" glyph-name="Ugrave.ss01"></glyph>
    <glyph d="M394 -3q-123 0 -195 72t-72 209v422h20v-421q0 -130 65 -196.5t183 -66.5t183 69.5t65 213.5v401h20v-700h-20v176l2 -3q-26 -88 -91.5 -132t-159.5 -44zM395 753l-10 16q31 14 47 33t16 44q0 23 -16 38.5t-42 15.5q-33 0 -62 -19l-8 17q14 10 33 15.5t36 5.5
q36 0 57.5 -19.5t21.5 -52.5q0 -30 -17.5 -53t-55.5 -41z" glyph-name="uni1EE6.ss01"></glyph>
    <glyph d="M394 -3q-123 0 -195 72t-72 209v422h20v-421q0 -130 65 -196.5t183 -66.5t183 69.5t65 213.5v401h20v-700h-20v176l2 -3q-26 -88 -91.5 -132t-159.5 -44zM658 681v19h10q39 0 54.5 21t15.5 49q0 20 -6 36.5t-14 30.5l18 8q10 -15 16 -34.5t6 -39.5q0 -37 -20.5 -63.5
t-69.5 -26.5h-10z" glyph-name="Uhorn.ss01"></glyph>
    <glyph d="M394 -3q-123 0 -195 72t-72 209v422h20v-421q0 -130 65 -196.5t183 -66.5t183 69.5t65 213.5v401h20v-700h-20v176l2 -3q-26 -88 -91.5 -132t-159.5 -44zM658 681v19h10q39 0 54.5 21t15.5 49q0 20 -6 36.5t-14 30.5l18 8q10 -15 16 -34.5t6 -39.5q0 -37 -20.5 -63.5
t-69.5 -26.5h-10zM348 757l140 110h40l-150 -110h-30z" glyph-name="uni1EE8.ss01"></glyph>
    <glyph d="M394 -3q-123 0 -195 72t-72 209v422h20v-421q0 -130 65 -196.5t183 -66.5t183 69.5t65 213.5v401h20v-700h-20v176l2 -3q-26 -88 -91.5 -132t-159.5 -44zM658 681v19h10q39 0 54.5 21t15.5 49q0 20 -6 36.5t-14 30.5l18 8q10 -15 16 -34.5t6 -39.5q0 -37 -20.5 -63.5
t-69.5 -26.5h-10zM393 -176q-10 0 -18 8t-8 18q0 11 8 18.5t18 7.5q11 0 18.5 -7.5t7.5 -18.5q0 -10 -7.5 -18t-18.5 -8z" glyph-name="uni1EF0.ss01"></glyph>
    <glyph d="M394 -3q-123 0 -195 72t-72 209v422h20v-421q0 -130 65 -196.5t183 -66.5t183 69.5t65 213.5v401h20v-700h-20v176l2 -3q-26 -88 -91.5 -132t-159.5 -44zM658 681v19h10q39 0 54.5 21t15.5 49q0 20 -6 36.5t-14 30.5l18 8q10 -15 16 -34.5t6 -39.5q0 -37 -20.5 -63.5
t-69.5 -26.5h-10zM408 757l-150 110h40l140 -110h-30z" glyph-name="uni1EEA.ss01"></glyph>
    <glyph d="M394 -3q-123 0 -195 72t-72 209v422h20v-421q0 -130 65 -196.5t183 -66.5t183 69.5t65 213.5v401h20v-700h-20v176l2 -3q-26 -88 -91.5 -132t-159.5 -44zM658 681v19h10q39 0 54.5 21t15.5 49q0 20 -6 36.5t-14 30.5l18 8q10 -15 16 -34.5t6 -39.5q0 -37 -20.5 -63.5
t-69.5 -26.5h-10zM395 753l-10 16q31 14 47 33t16 44q0 23 -16 38.5t-42 15.5q-33 0 -62 -19l-8 17q14 10 33 15.5t36 5.5q36 0 57.5 -19.5t21.5 -52.5q0 -30 -17.5 -53t-55.5 -41z" glyph-name="uni1EEC.ss01"></glyph>
    <glyph d="M394 -3q-123 0 -195 72t-72 209v422h20v-421q0 -130 65 -196.5t183 -66.5t183 69.5t65 213.5v401h20v-700h-20v176l2 -3q-26 -88 -91.5 -132t-159.5 -44zM658 681v19h10q39 0 54.5 21t15.5 49q0 20 -6 36.5t-14 30.5l18 8q10 -15 16 -34.5t6 -39.5q0 -37 -20.5 -63.5
t-69.5 -26.5h-10zM456 769q-21 0 -37.5 10.5t-30 24t-27.5 24t-31 10.5q-24 0 -38 -18t-16 -49h-19q2 39 21.5 62.5t51.5 23.5q21 0 37.5 -10.5t30 -24t27.5 -24t31 -10.5q24 0 38.5 18t15.5 47h19q-1 -37 -21 -60.5t-52 -23.5z" glyph-name="uni1EEE.ss01"></glyph>
    <glyph d="M394 -3q-123 0 -195 72t-72 209v422h20v-421q0 -130 65 -196.5t183 -66.5t183 69.5t65 213.5v401h20v-700h-20v176l2 -3q-26 -88 -91.5 -132t-159.5 -44zM449 757l111 110h34l-118 -110h-27zM310 757l111 110h34l-118 -110h-27z" glyph-name="Uhungarumlaut.ss01"></glyph>
    <glyph d="M394 -3q-123 0 -195 72t-72 209v422h20v-421q0 -130 65 -196.5t183 -66.5t183 69.5t65 213.5v401h20v-700h-20v176l2 -3q-26 -88 -91.5 -132t-159.5 -44zM261 757q2 53 40 83t92 30t92.5 -30t39.5 -83h-19q-1 44 -33.5 69t-79.5 25q-46 0 -78.5 -25t-34.5 -69h-19z" glyph-name="uni0216.ss01"></glyph>
    <glyph d="M394 -3q-123 0 -195 72t-72 209v422h20v-421q0 -130 65 -196.5t183 -66.5t183 69.5t65 213.5v401h20v-700h-20v176l2 -3q-26 -88 -91.5 -132t-159.5 -44zM257 802v20h272v-20h-272z" glyph-name="Umacron.ss01"></glyph>
    <glyph d="M394 -3q-123 0 -195 72t-72 209v422h20v-421q0 -130 65 -196.5t183 -66.5t183 69.5t65 213.5v401h20v-700h-20v176l2 -3q-26 -88 -91.5 -132t-159.5 -44zM257 788v20h272v-20h-272zM475 905q-10 0 -18 8t-8 18q0 11 8 18.5t18 7.5q11 0 18.5 -7.5t7.5 -18.5
q0 -10 -7.5 -18t-18.5 -8zM311 905q-10 0 -18 8t-8 18q0 11 8 18.5t18 7.5q11 0 18.5 -7.5t7.5 -18.5q0 -10 -7.5 -18t-18.5 -8z" glyph-name="uni1E7A.ss01"></glyph>
    <glyph d="M394 -3q-123 0 -195 72t-72 209v422h20v-421q0 -130 65 -196.5t183 -66.5t183 69.5t65 213.5v401h20v-700h-20v176l2 -3q-26 -88 -91.5 -132t-159.5 -44zM607 -213q-39 0 -65 22t-26 61q0 21 10.5 45t40 50t86.5 51l10 -16q-55 -23 -82 -46.5t-36 -44.5t-9 -39
q0 -32 20.5 -48t51.5 -16q17 0 33.5 6t28.5 17l11 -15q-16 -14 -34.5 -20.5t-39.5 -6.5z" glyph-name="Uogonek.ss01"></glyph>
    <glyph d="M394 -3q-123 0 -195 72t-72 209v422h20v-421q0 -130 65 -196.5t183 -66.5t183 69.5t65 213.5v401h20v-700h-20v176l2 -3q-26 -88 -91.5 -132t-159.5 -44zM392 780q-27 0 -47.5 12.5t-32.5 33t-12 44.5q0 25 12 46t33 34t47 13q27 0 48 -13t33 -34t12 -46q0 -24 -12 -44.5
t-33 -33t-48 -12.5zM392 799q32 0 52.5 21t20.5 50q0 30 -20.5 52t-52.5 22q-31 0 -51.5 -21.5t-20.5 -52.5q0 -30 20 -50.5t52 -20.5z" glyph-name="Uring.ss01"></glyph>
    <glyph d="M394 -3q-123 0 -195 72t-72 209v422h20v-421q0 -130 65 -196.5t183 -66.5t183 69.5t65 213.5v401h20v-700h-20v176l2 -3q-26 -88 -91.5 -132t-159.5 -44zM456 769q-21 0 -37.5 10.5t-30 24t-27.5 24t-31 10.5q-24 0 -38 -18t-16 -49h-19q2 39 21.5 62.5t51.5 23.5
q21 0 37.5 -10.5t30 -24t27.5 -24t31 -10.5q24 0 38.5 18t15.5 47h19q-1 -37 -21 -60.5t-52 -23.5z" glyph-name="Utilde.ss01"></glyph>
    <glyph d="M394 -3q-123 0 -195 72t-72 209v422h20v-421q0 -130 65 -196.5t183 -66.5t183 69.5t65 213.5v401h20v-700h-20v176l2 -3q-26 -88 -91.5 -132t-159.5 -44zM454 772q-26 0 -45.5 13.5t-37 27t-39.5 13.5q-24 0 -38.5 -13.5t-15.5 -38.5h-19q1 32 21 51.5t52 19.5
q27 0 46 -13.5t37 -27t39 -13.5q24 0 38.5 13t15.5 37h19q-1 -31 -21 -50t-52 -19zM348 870l127 100h40l-137 -100h-30z" glyph-name="uni1E78.ss01"></glyph>
    <glyph d="M372 -3q-112 0 -178.5 66.5t-66.5 203.5v433h20v-432q0 -130 59.5 -191t165.5 -61q104 0 163.5 61t59.5 191v432h20v-432q0 -130 59 -191t164 -61t165 61t60 191v432h20v-433q0 -137 -66.5 -203.5t-178.5 -66.5q-94 0 -155.5 47.5t-78.5 145.5h2q-17 -98 -78.5 -145.5
t-155.5 -47.5z" glyph-name="W.ss01"></glyph>
    <glyph d="M372 -3q-112 0 -178.5 66.5t-66.5 203.5v433h20v-432q0 -130 59.5 -191t165.5 -61q104 0 163.5 61t59.5 191v432h20v-432q0 -130 59 -191t164 -61t165 61t60 191v432h20v-433q0 -137 -66.5 -203.5t-178.5 -66.5q-94 0 -155.5 47.5t-78.5 145.5h2q-17 -98 -78.5 -145.5
t-155.5 -47.5zM560 757l140 110h40l-150 -110h-30z" glyph-name="Wacute.ss01"></glyph>
    <glyph d="M372 -3q-112 0 -178.5 66.5t-66.5 203.5v433h20v-432q0 -130 59.5 -191t165.5 -61q104 0 163.5 61t59.5 191v432h20v-432q0 -130 59 -191t164 -61t165 61t60 191v432h20v-433q0 -137 -66.5 -203.5t-178.5 -66.5q-94 0 -155.5 47.5t-78.5 145.5h2q-17 -98 -78.5 -145.5
t-155.5 -47.5zM467 757l122 110h32l122 -110h-27l-114 96h6l-114 -96h-27z" glyph-name="Wcircumflex.ss01"></glyph>
    <glyph d="M372 -3q-112 0 -178.5 66.5t-66.5 203.5v433h20v-432q0 -130 59.5 -191t165.5 -61q104 0 163.5 61t59.5 191v432h20v-432q0 -130 59 -191t164 -61t165 61t60 191v432h20v-433q0 -137 -66.5 -203.5t-178.5 -66.5q-94 0 -155.5 47.5t-78.5 145.5h2q-17 -98 -78.5 -145.5
t-155.5 -47.5zM687 791q-10 0 -18 8t-8 18q0 11 8 18.5t18 7.5q11 0 18.5 -7.5t7.5 -18.5q0 -10 -7.5 -18t-18.5 -8zM523 791q-10 0 -18 8t-8 18q0 11 8 18.5t18 7.5q11 0 18.5 -7.5t7.5 -18.5q0 -10 -7.5 -18t-18.5 -8z" glyph-name="Wdieresis.ss01"></glyph>
    <glyph d="M372 -3q-112 0 -178.5 66.5t-66.5 203.5v433h20v-432q0 -130 59.5 -191t165.5 -61q104 0 163.5 61t59.5 191v432h20v-432q0 -130 59 -191t164 -61t165 61t60 191v432h20v-433q0 -137 -66.5 -203.5t-178.5 -66.5q-94 0 -155.5 47.5t-78.5 145.5h2q-17 -98 -78.5 -145.5
t-155.5 -47.5zM620 757l-150 110h40l140 -110h-30z" glyph-name="Wgrave.ss01"></glyph>
    <glyph d="M392 -103q-84 0 -148.5 30.5t-107.5 85.5l15 14q44 -56 103.5 -83.5t138.5 -27.5q119 0 184 69t65 209v166l2 -2q-26 -89 -92 -133t-161 -44q-124 0 -196.5 72t-72.5 209v238h20v-237q0 -130 65.5 -196.5t184.5 -66.5t184.5 69.5t65.5 213.5v217h20v-507
q0 -99 -32.5 -164.5t-93 -98.5t-144.5 -33z" glyph-name="Y.ss01"></glyph>
    <glyph d="M392 -103q-84 0 -148.5 30.5t-107.5 85.5l15 14q44 -56 103.5 -83.5t138.5 -27.5q119 0 184 69t65 209v166l2 -2q-26 -89 -92 -133t-161 -44q-124 0 -196.5 72t-72.5 209v238h20v-237q0 -130 65.5 -196.5t184.5 -66.5t184.5 69.5t65.5 213.5v217h20v-507
q0 -99 -32.5 -164.5t-93 -98.5t-144.5 -33zM347 757l140 110h40l-150 -110h-30z" glyph-name="Yacute.ss01"></glyph>
    <glyph d="M392 -103q-84 0 -148.5 30.5t-107.5 85.5l15 14q44 -56 103.5 -83.5t138.5 -27.5q119 0 184 69t65 209v166l2 -2q-26 -89 -92 -133t-161 -44q-124 0 -196.5 72t-72.5 209v238h20v-237q0 -130 65.5 -196.5t184.5 -66.5t184.5 69.5t65.5 213.5v217h20v-507
q0 -99 -32.5 -164.5t-93 -98.5t-144.5 -33zM254 757l122 110h32l122 -110h-27l-114 96h6l-114 -96h-27z" glyph-name="Ycircumflex.ss01"></glyph>
    <glyph d="M392 -103q-84 0 -148.5 30.5t-107.5 85.5l15 14q44 -56 103.5 -83.5t138.5 -27.5q119 0 184 69t65 209v166l2 -2q-26 -89 -92 -133t-161 -44q-124 0 -196.5 72t-72.5 209v238h20v-237q0 -130 65.5 -196.5t184.5 -66.5t184.5 69.5t65.5 213.5v217h20v-507
q0 -99 -32.5 -164.5t-93 -98.5t-144.5 -33zM474 791q-10 0 -18 8t-8 18q0 11 8 18.5t18 7.5q11 0 18.5 -7.5t7.5 -18.5q0 -10 -7.5 -18t-18.5 -8zM310 791q-10 0 -18 8t-8 18q0 11 8 18.5t18 7.5q11 0 18.5 -7.5t7.5 -18.5q0 -10 -7.5 -18t-18.5 -8z" glyph-name="Ydieresis.ss01"></glyph>
    <glyph d="M392 -103q-84 0 -148.5 30.5t-107.5 85.5l15 14q44 -56 103.5 -83.5t138.5 -27.5q119 0 184 69t65 209v166l2 -2q-26 -89 -92 -133t-161 -44q-124 0 -196.5 72t-72.5 209v238h20v-237q0 -130 65.5 -196.5t184.5 -66.5t184.5 69.5t65.5 213.5v217h20v-507
q0 -99 -32.5 -164.5t-93 -98.5t-144.5 -33zM392 791q-10 0 -18 8t-8 18q0 11 8 18.5t18 7.5q11 0 18.5 -7.5t7.5 -18.5q0 -10 -7.5 -18t-18.5 -8z" glyph-name="uni1E8E.ss01"></glyph>
    <glyph d="M392 -103q-84 0 -148.5 30.5t-107.5 85.5l15 14q44 -56 103.5 -83.5t138.5 -27.5q119 0 184 69t65 209v166l2 -2q-26 -89 -92 -133t-161 -44q-124 0 -196.5 72t-72.5 209v238h20v-237q0 -130 65.5 -196.5t184.5 -66.5t184.5 69.5t65.5 213.5v217h20v-507
q0 -99 -32.5 -164.5t-93 -98.5t-144.5 -33zM652 -176q-10 0 -18 8t-8 18q0 11 8 18.5t18 7.5q11 0 18.5 -7.5t7.5 -18.5q0 -10 -7.5 -18t-18.5 -8z" glyph-name="uni1EF4.ss01"></glyph>
    <glyph d="M392 -103q-84 0 -148.5 30.5t-107.5 85.5l15 14q44 -56 103.5 -83.5t138.5 -27.5q119 0 184 69t65 209v166l2 -2q-26 -89 -92 -133t-161 -44q-124 0 -196.5 72t-72.5 209v238h20v-237q0 -130 65.5 -196.5t184.5 -66.5t184.5 69.5t65.5 213.5v217h20v-507
q0 -99 -32.5 -164.5t-93 -98.5t-144.5 -33zM407 757l-150 110h40l140 -110h-30z" glyph-name="Ygrave.ss01"></glyph>
    <glyph d="M392 -103q-84 0 -148.5 30.5t-107.5 85.5l15 14q44 -56 103.5 -83.5t138.5 -27.5q119 0 184 69t65 209v166l2 -2q-26 -89 -92 -133t-161 -44q-124 0 -196.5 72t-72.5 209v238h20v-237q0 -130 65.5 -196.5t184.5 -66.5t184.5 69.5t65.5 213.5v217h20v-507
q0 -99 -32.5 -164.5t-93 -98.5t-144.5 -33zM394 753l-10 16q31 14 47 33t16 44q0 23 -16 38.5t-42 15.5q-33 0 -62 -19l-8 17q14 10 33 15.5t36 5.5q36 0 57.5 -19.5t21.5 -52.5q0 -30 -17.5 -53t-55.5 -41z" glyph-name="uni1EF6.ss01"></glyph>
    <glyph d="M392 -103q-84 0 -148.5 30.5t-107.5 85.5l15 14q44 -56 103.5 -83.5t138.5 -27.5q119 0 184 69t65 209v166l2 -2q-26 -89 -92 -133t-161 -44q-124 0 -196.5 72t-72.5 209v238h20v-237q0 -130 65.5 -196.5t184.5 -66.5t184.5 69.5t65.5 213.5v217h20v-507
q0 -99 -32.5 -164.5t-93 -98.5t-144.5 -33zM256 802v20h272v-20h-272z" glyph-name="uni0232.ss01"></glyph>
    <glyph d="M392 -103q-84 0 -148.5 30.5t-107.5 85.5l15 14q44 -56 103.5 -83.5t138.5 -27.5q119 0 184 69t65 209v166l2 -2q-26 -89 -92 -133t-161 -44q-124 0 -196.5 72t-72.5 209v238h20v-237q0 -130 65.5 -196.5t184.5 -66.5t184.5 69.5t65.5 213.5v217h20v-507
q0 -99 -32.5 -164.5t-93 -98.5t-144.5 -33zM455 769q-21 0 -37.5 10.5t-30 24t-27.5 24t-31 10.5q-24 0 -38 -18t-16 -49h-19q2 39 21.5 62.5t51.5 23.5q21 0 37.5 -10.5t30 -24t27.5 -24t31 -10.5q24 0 38.5 18t15.5 47h19q-1 -37 -21 -60.5t-52 -23.5z" glyph-name="uni1EF8.ss01"></glyph>
    <glyph d="M55 0v15l512 673l1 -7h-513v19h535v-15l-512 -673l-1 7h528v-19h-550zM121 346v19h209h7h184v-19h-198h-7h-195z" glyph-name="Z.ss01"></glyph>
    <glyph d="M55 0v15l512 673l1 -7h-513v19h535v-15l-512 -673l-1 7h528v-19h-550zM121 346v19h209h7h184v-19h-198h-7h-195zM280 757l140 110h40l-150 -110h-30z" glyph-name="Zacute.ss01"></glyph>
    <glyph d="M55 0v15l512 673l1 -7h-513v19h535v-15l-512 -673l-1 7h528v-19h-550zM121 346v19h209h7h184v-19h-198h-7h-195zM309 757l-122 110h27l114 -96h-6l114 96h27l-122 -110h-32z" glyph-name="Zcaron.ss01"></glyph>
    <glyph d="M55 0v15l512 673l1 -7h-513v19h535v-15l-512 -673l-1 7h528v-19h-550zM121 346v19h209h7h184v-19h-198h-7h-195zM325 791q-10 0 -18 8t-8 18q0 11 8 18.5t18 7.5q11 0 18.5 -7.5t7.5 -18.5q0 -10 -7.5 -18t-18.5 -8z" glyph-name="Zdotaccent.ss01"></glyph>
    <glyph d="M55 0v15l512 673l1 -7h-513v19h535v-15l-512 -673l-1 7h528v-19h-550zM121 346v19h209h7h184v-19h-198h-7h-195zM335 -176q-10 0 -18 8t-8 18q0 11 8 18.5t18 7.5q11 0 18.5 -7.5t7.5 -18.5q0 -10 -7.5 -18t-18.5 -8z" glyph-name="uni1E92.ss01"></glyph>
    <glyph d="M445 0v123v17v198q0 81 -42 122t-122 41q-58 0 -106 -20t-82 -52l-14 14q37 35 90 56t111 21q90 0 137.5 -46t47.5 -135v-339h-20zM248 -3q-58 0 -99 18t-62.5 51t-21.5 76q0 37 17.5 68.5t57.5 51t109 19.5h207v-19h-208q-88 0 -125.5 -33.5t-37.5 -85.5q0 -58 43 -92.5
t120 -34.5q75 0 123.5 34.5t73.5 97.5l10 -13q-21 -62 -73.5 -100t-133.5 -38z" unicode="a" glyph-name="a"></glyph>
    <glyph d="M445 0v123v17v198q0 81 -42 122t-122 41q-58 0 -106 -20t-82 -52l-14 14q37 35 90 56t111 21q90 0 137.5 -46t47.5 -135v-339h-20zM248 -3q-58 0 -99 18t-62.5 51t-21.5 76q0 37 17.5 68.5t57.5 51t109 19.5h207v-19h-208q-88 0 -125.5 -33.5t-37.5 -85.5q0 -58 43 -92.5
t120 -34.5q75 0 123.5 34.5t73.5 97.5l10 -13q-21 -62 -73.5 -100t-133.5 -38zM228 607l140 110h40l-150 -110h-30z" unicode="á" glyph-name="aacute"></glyph>
    <glyph d="M445 0v123v17v198q0 81 -42 122t-122 41q-58 0 -106 -20t-82 -52l-14 14q37 35 90 56t111 21q90 0 137.5 -46t47.5 -135v-339h-20zM248 -3q-58 0 -99 18t-62.5 51t-21.5 76q0 37 17.5 68.5t57.5 51t109 19.5h207v-19h-208q-88 0 -125.5 -33.5t-37.5 -85.5q0 -58 43 -92.5
t120 -34.5q75 0 123.5 34.5t73.5 97.5l10 -13q-21 -62 -73.5 -100t-133.5 -38zM273 604q-54 0 -92 30.5t-40 82.5h19q2 -43 34.5 -68.5t78.5 -25.5q47 0 79.5 25.5t33.5 68.5h19q-1 -52 -39.5 -82.5t-92.5 -30.5z" unicode="ă" glyph-name="abreve"></glyph>
    <glyph d="M445 0v123v17v198q0 81 -42 122t-122 41q-58 0 -106 -20t-82 -52l-14 14q37 35 90 56t111 21q90 0 137.5 -46t47.5 -135v-339h-20zM248 -3q-58 0 -99 18t-62.5 51t-21.5 76q0 37 17.5 68.5t57.5 51t109 19.5h207v-19h-208q-88 0 -125.5 -33.5t-37.5 -85.5q0 -58 43 -92.5
t120 -34.5q75 0 123.5 34.5t73.5 97.5l10 -13q-21 -62 -73.5 -100t-133.5 -38zM273 604q-53 0 -89 21.5t-43 61.5h19q7 -31 37 -47.5t76 -16.5t76 16.5t37 47.5h19q-7 -40 -43 -61.5t-89 -21.5zM228 701l127 100h40l-137 -100h-30z" unicode="ắ" glyph-name="uni1EAF"></glyph>
    <glyph d="M445 0v123v17v198q0 81 -42 122t-122 41q-58 0 -106 -20t-82 -52l-14 14q37 35 90 56t111 21q90 0 137.5 -46t47.5 -135v-339h-20zM248 -3q-58 0 -99 18t-62.5 51t-21.5 76q0 37 17.5 68.5t57.5 51t109 19.5h207v-19h-208q-88 0 -125.5 -33.5t-37.5 -85.5q0 -58 43 -92.5
t120 -34.5q75 0 123.5 34.5t73.5 97.5l10 -13q-21 -62 -73.5 -100t-133.5 -38zM283 -176q-10 0 -18 8t-8 18q0 11 8 18.5t18 7.5q11 0 18.5 -7.5t7.5 -18.5q0 -10 -7.5 -18t-18.5 -8zM273 604q-54 0 -92 30.5t-40 82.5h19q2 -43 34.5 -68.5t78.5 -25.5q47 0 79.5 25.5
t33.5 68.5h19q-1 -52 -39.5 -82.5t-92.5 -30.5z" unicode="ặ" glyph-name="uni1EB7"></glyph>
    <glyph d="M445 0v123v17v198q0 81 -42 122t-122 41q-58 0 -106 -20t-82 -52l-14 14q37 35 90 56t111 21q90 0 137.5 -46t47.5 -135v-339h-20zM248 -3q-58 0 -99 18t-62.5 51t-21.5 76q0 37 17.5 68.5t57.5 51t109 19.5h207v-19h-208q-88 0 -125.5 -33.5t-37.5 -85.5q0 -58 43 -92.5
t120 -34.5q75 0 123.5 34.5t73.5 97.5l10 -13q-21 -62 -73.5 -100t-133.5 -38zM273 604q-53 0 -89 21.5t-43 61.5h19q7 -31 37 -47.5t76 -16.5t76 16.5t37 47.5h19q-7 -40 -43 -61.5t-89 -21.5zM288 701l-137 100h40l127 -100h-30z" unicode="ằ" glyph-name="uni1EB1"></glyph>
    <glyph d="M445 0v123v17v198q0 81 -42 122t-122 41q-58 0 -106 -20t-82 -52l-14 14q37 35 90 56t111 21q90 0 137.5 -46t47.5 -135v-339h-20zM248 -3q-58 0 -99 18t-62.5 51t-21.5 76q0 37 17.5 68.5t57.5 51t109 19.5h207v-19h-208q-88 0 -125.5 -33.5t-37.5 -85.5q0 -58 43 -92.5
t120 -34.5q75 0 123.5 34.5t73.5 97.5l10 -13q-21 -62 -73.5 -100t-133.5 -38zM273 604q-53 0 -89 21.5t-43 61.5h19q7 -31 37 -47.5t76 -16.5t76 16.5t37 47.5h19q-7 -40 -43 -61.5t-89 -21.5zM276 677l-10 15q21 10 33 24.5t12 31.5q0 16 -11.5 26t-30.5 10q-24 0 -43 -13
l-8 16q11 8 24.5 12t27.5 4q28 0 44 -15t16 -40q0 -22 -13.5 -40.5t-40.5 -30.5z" unicode="ẳ" glyph-name="uni1EB3"></glyph>
    <glyph d="M445 0v123v17v198q0 81 -42 122t-122 41q-58 0 -106 -20t-82 -52l-14 14q37 35 90 56t111 21q90 0 137.5 -46t47.5 -135v-339h-20zM248 -3q-58 0 -99 18t-62.5 51t-21.5 76q0 37 17.5 68.5t57.5 51t109 19.5h207v-19h-208q-88 0 -125.5 -33.5t-37.5 -85.5q0 -58 43 -92.5
t120 -34.5q75 0 123.5 34.5t73.5 97.5l10 -13q-21 -62 -73.5 -100t-133.5 -38zM273 604q-53 0 -89 21.5t-43 61.5h19q7 -31 37 -47.5t76 -16.5t76 16.5t37 47.5h19q-7 -40 -43 -61.5t-89 -21.5zM334 716q-26 0 -45.5 13.5t-37 27t-39.5 13.5q-24 0 -38.5 -13.5t-15.5 -38.5
h-19q1 32 21 51.5t52 19.5q27 0 46 -13.5t37 -27t39 -13.5q24 0 38.5 13t15.5 37h19q-1 -31 -21 -50t-52 -19z" unicode="ẵ" glyph-name="uni1EB5"></glyph>
    <glyph d="M445 0v123v17v198q0 81 -42 122t-122 41q-58 0 -106 -20t-82 -52l-14 14q37 35 90 56t111 21q90 0 137.5 -46t47.5 -135v-339h-20zM248 -3q-58 0 -99 18t-62.5 51t-21.5 76q0 37 17.5 68.5t57.5 51t109 19.5h207v-19h-208q-88 0 -125.5 -33.5t-37.5 -85.5q0 -58 43 -92.5
t120 -34.5q75 0 123.5 34.5t73.5 97.5l10 -13q-21 -62 -73.5 -100t-133.5 -38zM257 607l-122 110h27l114 -96h-6l114 96h27l-122 -110h-32z" unicode="ǎ" glyph-name="uni01CE"></glyph>
    <glyph d="M445 0v123v17v198q0 81 -42 122t-122 41q-58 0 -106 -20t-82 -52l-14 14q37 35 90 56t111 21q90 0 137.5 -46t47.5 -135v-339h-20zM248 -3q-58 0 -99 18t-62.5 51t-21.5 76q0 37 17.5 68.5t57.5 51t109 19.5h207v-19h-208q-88 0 -125.5 -33.5t-37.5 -85.5q0 -58 43 -92.5
t120 -34.5q75 0 123.5 34.5t73.5 97.5l10 -13q-21 -62 -73.5 -100t-133.5 -38zM135 607l122 110h32l122 -110h-27l-114 96h6l-114 -96h-27z" unicode="â" glyph-name="acircumflex"></glyph>
    <glyph d="M445 0v123v17v198q0 81 -42 122t-122 41q-58 0 -106 -20t-82 -52l-14 14q37 35 90 56t111 21q90 0 137.5 -46t47.5 -135v-339h-20zM248 -3q-58 0 -99 18t-62.5 51t-21.5 76q0 37 17.5 68.5t57.5 51t109 19.5h207v-19h-208q-88 0 -125.5 -33.5t-37.5 -85.5q0 -58 43 -92.5
t120 -34.5q75 0 123.5 34.5t73.5 97.5l10 -13q-21 -62 -73.5 -100t-133.5 -38zM135 607l123 80h30l123 -80h-30l-113 67h10l-113 -67h-30zM348 682l127 100h40l-137 -100h-30z" unicode="ấ" glyph-name="uni1EA5"></glyph>
    <glyph d="M445 0v123v17v198q0 81 -42 122t-122 41q-58 0 -106 -20t-82 -52l-14 14q37 35 90 56t111 21q90 0 137.5 -46t47.5 -135v-339h-20zM248 -3q-58 0 -99 18t-62.5 51t-21.5 76q0 37 17.5 68.5t57.5 51t109 19.5h207v-19h-208q-88 0 -125.5 -33.5t-37.5 -85.5q0 -58 43 -92.5
t120 -34.5q75 0 123.5 34.5t73.5 97.5l10 -13q-21 -62 -73.5 -100t-133.5 -38zM283 -176q-10 0 -18 8t-8 18q0 11 8 18.5t18 7.5q11 0 18.5 -7.5t7.5 -18.5q0 -10 -7.5 -18t-18.5 -8zM135 607l122 110h32l122 -110h-27l-114 96h6l-114 -96h-27z" unicode="ậ" glyph-name="uni1EAD"></glyph>
    <glyph d="M445 0v123v17v198q0 81 -42 122t-122 41q-58 0 -106 -20t-82 -52l-14 14q37 35 90 56t111 21q90 0 137.5 -46t47.5 -135v-339h-20zM248 -3q-58 0 -99 18t-62.5 51t-21.5 76q0 37 17.5 68.5t57.5 51t109 19.5h207v-19h-208q-88 0 -125.5 -33.5t-37.5 -85.5q0 -58 43 -92.5
t120 -34.5q75 0 123.5 34.5t73.5 97.5l10 -13q-21 -62 -73.5 -100t-133.5 -38zM135 607l123 80h30l123 -80h-30l-113 67h10l-113 -67h-30zM408 682l-137 100h40l127 -100h-30z" unicode="ầ" glyph-name="uni1EA7"></glyph>
    <glyph d="M445 0v123v17v198q0 81 -42 122t-122 41q-58 0 -106 -20t-82 -52l-14 14q37 35 90 56t111 21q90 0 137.5 -46t47.5 -135v-339h-20zM248 -3q-58 0 -99 18t-62.5 51t-21.5 76q0 37 17.5 68.5t57.5 51t109 19.5h207v-19h-208q-88 0 -125.5 -33.5t-37.5 -85.5q0 -58 43 -92.5
t120 -34.5q75 0 123.5 34.5t73.5 97.5l10 -13q-21 -62 -73.5 -100t-133.5 -38zM135 607l123 80h30l123 -80h-30l-113 67h10l-113 -67h-30zM376 668l-10 15q21 10 33 24.5t12 31.5q0 16 -11.5 26t-30.5 10q-24 0 -43 -13l-8 16q11 8 24.5 12t27.5 4q28 0 44 -15t16 -40
q0 -22 -13.5 -40.5t-40.5 -30.5z" unicode="ẩ" glyph-name="uni1EA9"></glyph>
    <glyph d="M445 0v123v17v198q0 81 -42 122t-122 41q-58 0 -106 -20t-82 -52l-14 14q37 35 90 56t111 21q90 0 137.5 -46t47.5 -135v-339h-20zM248 -3q-58 0 -99 18t-62.5 51t-21.5 76q0 37 17.5 68.5t57.5 51t109 19.5h207v-19h-208q-88 0 -125.5 -33.5t-37.5 -85.5q0 -58 43 -92.5
t120 -34.5q75 0 123.5 34.5t73.5 97.5l10 -13q-21 -62 -73.5 -100t-133.5 -38zM135 607l123 80h30l123 -80h-30l-113 67h10l-113 -67h-30zM334 720q-26 0 -45.5 13.5t-37 27t-39.5 13.5q-24 0 -38.5 -13.5t-15.5 -38.5h-19q1 32 21 51.5t52 19.5q27 0 46 -13.5t37 -27
t39 -13.5q24 0 38.5 13t15.5 37h19q-1 -31 -21 -50t-52 -19z" unicode="ẫ" glyph-name="uni1EAB"></glyph>
    <glyph d="M445 0v123v17v198q0 81 -42 122t-122 41q-58 0 -106 -20t-82 -52l-14 14q37 35 90 56t111 21q90 0 137.5 -46t47.5 -135v-339h-20zM248 -3q-58 0 -99 18t-62.5 51t-21.5 76q0 37 17.5 68.5t57.5 51t109 19.5h207v-19h-208q-88 0 -125.5 -33.5t-37.5 -85.5q0 -58 43 -92.5
t120 -34.5q75 0 123.5 34.5t73.5 97.5l10 -13q-21 -62 -73.5 -100t-133.5 -38zM329 607l-118 110h34l111 -110h-27zM190 607l-118 110h34l111 -110h-27z" unicode="ȁ" glyph-name="uni0201"></glyph>
    <glyph d="M445 0v123v17v198q0 81 -42 122t-122 41q-58 0 -106 -20t-82 -52l-14 14q37 35 90 56t111 21q90 0 137.5 -46t47.5 -135v-339h-20zM248 -3q-58 0 -99 18t-62.5 51t-21.5 76q0 37 17.5 68.5t57.5 51t109 19.5h207v-19h-208q-88 0 -125.5 -33.5t-37.5 -85.5q0 -58 43 -92.5
t120 -34.5q75 0 123.5 34.5t73.5 97.5l10 -13q-21 -62 -73.5 -100t-133.5 -38zM355 641q-10 0 -18 8t-8 18q0 11 8 18.5t18 7.5q11 0 18.5 -7.5t7.5 -18.5q0 -10 -7.5 -18t-18.5 -8zM191 641q-10 0 -18 8t-8 18q0 11 8 18.5t18 7.5q11 0 18.5 -7.5t7.5 -18.5q0 -10 -7.5 -18
t-18.5 -8z" unicode="ä" glyph-name="adieresis"></glyph>
    <glyph d="M445 0v123v17v198q0 81 -42 122t-122 41q-58 0 -106 -20t-82 -52l-14 14q37 35 90 56t111 21q90 0 137.5 -46t47.5 -135v-339h-20zM248 -3q-58 0 -99 18t-62.5 51t-21.5 76q0 37 17.5 68.5t57.5 51t109 19.5h207v-19h-208q-88 0 -125.5 -33.5t-37.5 -85.5q0 -58 43 -92.5
t120 -34.5q75 0 123.5 34.5t73.5 97.5l10 -13q-21 -62 -73.5 -100t-133.5 -38zM283 -176q-10 0 -18 8t-8 18q0 11 8 18.5t18 7.5q11 0 18.5 -7.5t7.5 -18.5q0 -10 -7.5 -18t-18.5 -8z" unicode="ạ" glyph-name="uni1EA1"></glyph>
    <glyph d="M445 0v123v17v198q0 81 -42 122t-122 41q-58 0 -106 -20t-82 -52l-14 14q37 35 90 56t111 21q90 0 137.5 -46t47.5 -135v-339h-20zM248 -3q-58 0 -99 18t-62.5 51t-21.5 76q0 37 17.5 68.5t57.5 51t109 19.5h207v-19h-208q-88 0 -125.5 -33.5t-37.5 -85.5q0 -58 43 -92.5
t120 -34.5q75 0 123.5 34.5t73.5 97.5l10 -13q-21 -62 -73.5 -100t-133.5 -38zM288 607l-150 110h40l140 -110h-30z" unicode="à" glyph-name="agrave"></glyph>
    <glyph d="M445 0v123v17v198q0 81 -42 122t-122 41q-58 0 -106 -20t-82 -52l-14 14q37 35 90 56t111 21q90 0 137.5 -46t47.5 -135v-339h-20zM248 -3q-58 0 -99 18t-62.5 51t-21.5 76q0 37 17.5 68.5t57.5 51t109 19.5h207v-19h-208q-88 0 -125.5 -33.5t-37.5 -85.5q0 -58 43 -92.5
t120 -34.5q75 0 123.5 34.5t73.5 97.5l10 -13q-21 -62 -73.5 -100t-133.5 -38zM275 603l-10 16q31 14 47 33t16 44q0 23 -16 38.5t-42 15.5q-33 0 -62 -19l-8 17q14 10 33 15.5t36 5.5q36 0 57.5 -19.5t21.5 -52.5q0 -30 -17.5 -53t-55.5 -41z" unicode="ả" glyph-name="uni1EA3"></glyph>
    <glyph d="M445 0v123v17v198q0 81 -42 122t-122 41q-58 0 -106 -20t-82 -52l-14 14q37 35 90 56t111 21q90 0 137.5 -46t47.5 -135v-339h-20zM248 -3q-58 0 -99 18t-62.5 51t-21.5 76q0 37 17.5 68.5t57.5 51t109 19.5h207v-19h-208q-88 0 -125.5 -33.5t-37.5 -85.5q0 -58 43 -92.5
t120 -34.5q75 0 123.5 34.5t73.5 97.5l10 -13q-21 -62 -73.5 -100t-133.5 -38zM141 607q2 53 40 83t92 30t92.5 -30t39.5 -83h-19q-1 44 -33.5 69t-79.5 25q-46 0 -78.5 -25t-34.5 -69h-19z" unicode="ȃ" glyph-name="uni0203"></glyph>
    <glyph d="M445 0v123v17v198q0 81 -42 122t-122 41q-58 0 -106 -20t-82 -52l-14 14q37 35 90 56t111 21q90 0 137.5 -46t47.5 -135v-339h-20zM248 -3q-58 0 -99 18t-62.5 51t-21.5 76q0 37 17.5 68.5t57.5 51t109 19.5h207v-19h-208q-88 0 -125.5 -33.5t-37.5 -85.5q0 -58 43 -92.5
t120 -34.5q75 0 123.5 34.5t73.5 97.5l10 -13q-21 -62 -73.5 -100t-133.5 -38zM137 652v20h272v-20h-272z" unicode="ā" glyph-name="amacron"></glyph>
    <glyph d="M445 0v123v17v198q0 81 -42 122t-122 41q-58 0 -106 -20t-82 -52l-14 14q37 35 90 56t111 21q90 0 137.5 -46t47.5 -135v-339h-20zM248 -3q-58 0 -99 18t-62.5 51t-21.5 76q0 37 17.5 68.5t57.5 51t109 19.5h207v-19h-208q-88 0 -125.5 -33.5t-37.5 -85.5q0 -58 43 -92.5
t120 -34.5q75 0 123.5 34.5t73.5 97.5l10 -13q-21 -62 -73.5 -100t-133.5 -38zM409 -213q-39 0 -65 22t-26 61q0 21 10.5 45t40 50t86.5 51l10 -16q-55 -23 -82 -46.5t-36 -44.5t-9 -39q0 -32 20.5 -48t51.5 -16q17 0 33.5 6t28.5 17l11 -15q-16 -14 -34.5 -20.5t-39.5 -6.5
z" unicode="ą" glyph-name="aogonek"></glyph>
    <glyph d="M445 0v123v17v198q0 81 -42 122t-122 41q-58 0 -106 -20t-82 -52l-14 14q37 35 90 56t111 21q90 0 137.5 -46t47.5 -135v-339h-20zM248 -3q-58 0 -99 18t-62.5 51t-21.5 76q0 37 17.5 68.5t57.5 51t109 19.5h207v-19h-208q-88 0 -125.5 -33.5t-37.5 -85.5q0 -58 43 -92.5
t120 -34.5q75 0 123.5 34.5t73.5 97.5l10 -13q-21 -62 -73.5 -100t-133.5 -38zM272 597q-27 0 -47.5 12.5t-32.5 33t-12 44.5q0 25 12 46t33 34t47 13q27 0 48 -13t33 -34t12 -46q0 -24 -12 -44.5t-33 -33t-48 -12.5zM272 616q32 0 52.5 21t20.5 50q0 30 -20.5 52t-52.5 22
q-31 0 -51.5 -21.5t-20.5 -52.5q0 -30 20 -50.5t52 -20.5z" unicode="å" glyph-name="aring"></glyph>
    <glyph d="M445 0v123v17v198q0 81 -42 122t-122 41q-58 0 -106 -20t-82 -52l-14 14q37 35 90 56t111 21q90 0 137.5 -46t47.5 -135v-339h-20zM248 -3q-58 0 -99 18t-62.5 51t-21.5 76q0 37 17.5 68.5t57.5 51t109 19.5h207v-19h-208q-88 0 -125.5 -33.5t-37.5 -85.5q0 -58 43 -92.5
t120 -34.5q75 0 123.5 34.5t73.5 97.5l10 -13q-21 -62 -73.5 -100t-133.5 -38zM272 597q-27 0 -47.5 12.5t-32.5 33t-12 44.5q0 25 12 46t33 34t47 13q27 0 48 -13t33 -34t12 -46q0 -24 -12 -44.5t-33 -33t-48 -12.5zM272 616q32 0 52.5 21t20.5 50q0 30 -20.5 52t-52.5 22
q-31 0 -51.5 -21.5t-20.5 -52.5q0 -30 20 -50.5t52 -20.5zM340 745l-21 9l89 84l17 -13z" unicode="ǻ" glyph-name="aringacute"></glyph>
    <glyph d="M445 0v123v17v198q0 81 -42 122t-122 41q-58 0 -106 -20t-82 -52l-14 14q37 35 90 56t111 21q90 0 137.5 -46t47.5 -135v-339h-20zM248 -3q-58 0 -99 18t-62.5 51t-21.5 76q0 37 17.5 68.5t57.5 51t109 19.5h207v-19h-208q-88 0 -125.5 -33.5t-37.5 -85.5q0 -58 43 -92.5
t120 -34.5q75 0 123.5 34.5t73.5 97.5l10 -13q-21 -62 -73.5 -100t-133.5 -38zM336 619q-21 0 -37.5 10.5t-30 24t-27.5 24t-31 10.5q-24 0 -38 -18t-16 -49h-19q2 39 21.5 62.5t51.5 23.5q21 0 37.5 -10.5t30 -24t27.5 -24t31 -10.5q24 0 38.5 18t15.5 47h19
q-1 -37 -21 -60.5t-52 -23.5z" unicode="ã" glyph-name="atilde"></glyph>
    <glyph d="M248 -3q-87 0 -135 40t-48 105q0 37 17.5 68t57.5 50.5t109 19.5h202v-19h-203q-88 0 -125.5 -33.5t-37.5 -84.5q0 -58 43 -92.5t120 -34.5q87 0 142 48t55 138v136q0 81 -42 122t-122 41q-58 0 -106 -20t-82 -52l-14 14q37 35 90 56t111 21q87 0 133.5 -42t51.5 -128
l-3 9q26 73 85 117t138 44q51 0 94.5 -18.5t76.5 -53t51 -80.5t18 -102v-2v-3h-464v19h453l-8 -17q0 68 -29 122t-78.5 85t-113.5 31t-113.5 -31t-78 -85t-28.5 -122v-4q0 -71 31 -126t85 -86t123 -31q52 0 98.5 20t77.5 60l14 -14q-34 -42 -84 -63.5t-106 -21.5t-107 21.5
t-88.5 64t-55.5 106.5l13 -2q-5 -67 -36 -108.5t-78.5 -61.5t-103.5 -20z" unicode="æ" glyph-name="ae"></glyph>
    <glyph d="M248 -3q-87 0 -135 40t-48 105q0 37 17.5 68t57.5 50.5t109 19.5h202v-19h-203q-88 0 -125.5 -33.5t-37.5 -84.5q0 -58 43 -92.5t120 -34.5q87 0 142 48t55 138v136q0 81 -42 122t-122 41q-58 0 -106 -20t-82 -52l-14 14q37 35 90 56t111 21q87 0 133.5 -42t51.5 -128
l-3 9q26 73 85 117t138 44q51 0 94.5 -18.5t76.5 -53t51 -80.5t18 -102v-2v-3h-464v19h453l-8 -17q0 68 -29 122t-78.5 85t-113.5 31t-113.5 -31t-78 -85t-28.5 -122v-4q0 -71 31 -126t85 -86t123 -31q52 0 98.5 20t77.5 60l14 -14q-34 -42 -84 -63.5t-106 -21.5t-107 21.5
t-88.5 64t-55.5 106.5l13 -2q-5 -67 -36 -108.5t-78.5 -61.5t-103.5 -20zM410 607l140 110h40l-150 -110h-30z" unicode="ǽ" glyph-name="aeacute"></glyph>
    <glyph d="M366 -3q-71 0 -127 33.5t-88.5 93t-32.5 135.5q0 77 32.5 135.5t88.5 92t127 33.5t128 -33.5t90 -92t33 -135.5q0 -76 -33 -135.5t-90 -93t-128 -33.5zM115 0v742h20v-412l-10 -70l10 -70v-190h-20zM366 16q66 0 118.5 31t82.5 86t30 126q0 72 -30 126.5t-82.5 85
t-118.5 30.5t-118.5 -30.5t-82.5 -85t-30 -126.5q0 -71 30 -126t82.5 -86t118.5 -31z" unicode="b" glyph-name="b"></glyph>
    <glyph d="M308 -3q-73 0 -130.5 33.5t-90.5 92.5t-33 136t33 136t90.5 92t130.5 33q56 0 104.5 -21t81.5 -63l-14 -15q-30 41 -75 60.5t-97 19.5q-67 0 -120 -30.5t-83.5 -85t-30.5 -126.5t30.5 -126.5t83.5 -85.5t120 -31q52 0 97 20t75 60l14 -15q-33 -42 -81.5 -63t-104.5 -21z" unicode="c" glyph-name="c"></glyph>
    <glyph d="M308 -3q-73 0 -130.5 33.5t-90.5 92.5t-33 136t33 136t90.5 92t130.5 33q56 0 104.5 -21t81.5 -63l-14 -15q-30 41 -75 60.5t-97 19.5q-67 0 -120 -30.5t-83.5 -85t-30.5 -126.5t30.5 -126.5t83.5 -85.5t120 -31q52 0 97 20t75 60l14 -15q-33 -42 -81.5 -63t-104.5 -21z
M246 607l140 110h40l-150 -110h-30z" unicode="ć" glyph-name="cacute"></glyph>
    <glyph d="M308 -3q-73 0 -130.5 33.5t-90.5 92.5t-33 136t33 136t90.5 92t130.5 33q56 0 104.5 -21t81.5 -63l-14 -15q-30 41 -75 60.5t-97 19.5q-67 0 -120 -30.5t-83.5 -85t-30.5 -126.5t30.5 -126.5t83.5 -85.5t120 -31q52 0 97 20t75 60l14 -15q-33 -42 -81.5 -63t-104.5 -21z
M275 607l-122 110h27l114 -96h-6l114 96h27l-122 -110h-32z" unicode="č" glyph-name="ccaron"></glyph>
    <glyph d="M308 -3q-73 0 -130.5 33.5t-90.5 92.5t-33 136t33 136t90.5 92t130.5 33q56 0 104.5 -21t81.5 -63l-14 -15q-30 41 -75 60.5t-97 19.5q-67 0 -120 -30.5t-83.5 -85t-30.5 -126.5t30.5 -126.5t83.5 -85.5t120 -31q52 0 97 20t75 60l14 -15q-33 -42 -81.5 -63t-104.5 -21z
M275 -213q-21 0 -39 6.5t-35 20.5l11 15q12 -11 28.5 -17t33.5 -6q31 0 51.5 15.5t20.5 44.5q0 26 -18.5 43t-52.5 17h-16l22 79h19l-17 -61q38 -2 60.5 -23t22.5 -55q0 -36 -26 -57.5t-65 -21.5z" unicode="ç" glyph-name="ccedilla"></glyph>
    <glyph d="M308 -3q-73 0 -130.5 33.5t-90.5 92.5t-33 136t33 136t90.5 92t130.5 33q56 0 104.5 -21t81.5 -63l-14 -15q-30 41 -75 60.5t-97 19.5q-67 0 -120 -30.5t-83.5 -85t-30.5 -126.5t30.5 -126.5t83.5 -85.5t120 -31q52 0 97 20t75 60l14 -15q-33 -42 -81.5 -63t-104.5 -21z
M275 -213q-21 0 -39 6.5t-35 20.5l11 15q12 -11 28.5 -17t33.5 -6q31 0 51.5 15.5t20.5 44.5q0 26 -18.5 43t-52.5 17h-16l22 79h19l-17 -61q38 -2 60.5 -23t22.5 -55q0 -36 -26 -57.5t-65 -21.5zM246 607l140 110h40l-150 -110h-30z" unicode="ḉ" glyph-name="uni1E09"></glyph>
    <glyph d="M308 -3q-73 0 -130.5 33.5t-90.5 92.5t-33 136t33 136t90.5 92t130.5 33q56 0 104.5 -21t81.5 -63l-14 -15q-30 41 -75 60.5t-97 19.5q-67 0 -120 -30.5t-83.5 -85t-30.5 -126.5t30.5 -126.5t83.5 -85.5t120 -31q52 0 97 20t75 60l14 -15q-33 -42 -81.5 -63t-104.5 -21z
M153 607l122 110h32l122 -110h-27l-114 96h6l-114 -96h-27z" unicode="ĉ" glyph-name="ccircumflex"></glyph>
    <glyph d="M308 -3q-73 0 -130.5 33.5t-90.5 92.5t-33 136t33 136t90.5 92t130.5 33q56 0 104.5 -21t81.5 -63l-14 -15q-30 41 -75 60.5t-97 19.5q-67 0 -120 -30.5t-83.5 -85t-30.5 -126.5t30.5 -126.5t83.5 -85.5t120 -31q52 0 97 20t75 60l14 -15q-33 -42 -81.5 -63t-104.5 -21z
M291 641q-10 0 -18 8t-8 18q0 11 8 18.5t18 7.5q11 0 18.5 -7.5t7.5 -18.5q0 -10 -7.5 -18t-18.5 -8z" unicode="ċ" glyph-name="cdotaccent"></glyph>
    <glyph d="M305 -3q-71 0 -128 33.5t-90 93t-33 135.5q0 77 33 135.5t90 92t128 33.5t127 -33.5t88.5 -92t32.5 -135.5q0 -76 -32.5 -135.5t-88.5 -93t-127 -33.5zM305 16q66 0 118.5 31t82.5 86t30 126q0 72 -30 126.5t-82.5 85t-118.5 30.5t-118 -30.5t-82.5 -85t-30.5 -126.5
q0 -71 30.5 -126t82.5 -86t118 -31zM536 0v190l10 70l-10 70v412h20v-742h-20z" unicode="d" glyph-name="d"></glyph>
    <glyph d="M286 -3q-68 0 -120.5 27t-82 76t-29.5 114t29.5 113.5t83.5 75.5t127 27q65 0 118.5 -26t86 -75t34.5 -120l-8 1q12 38 15.5 77.5t3.5 64.5q0 108 -35.5 182t-100 112t-151.5 38q-42 0 -80.5 -6t-69.5 -15l-5 19q28 8 69 14.5t86 6.5q92 0 161 -40t107.5 -118.5
t38.5 -194.5q0 -106 -31 -185.5t-93 -123.5t-154 -44zM286 16q74 0 124.5 29.5t76.5 75t26 93.5q0 55 -28 99.5t-77 71t-114 26.5q-103 0 -161.5 -54.5t-58.5 -142.5q0 -58 26.5 -103t74.5 -70t111 -25zM148 521l-8 19l365 163l8 -19z" unicode="ð" glyph-name="eth"></glyph>
    <glyph d="M305 -3q-71 0 -128 33.5t-90 93t-33 135.5q0 77 33 135.5t90 92t128 33.5t127 -33.5t88.5 -92t32.5 -135.5q0 -76 -32.5 -135.5t-88.5 -93t-127 -33.5zM305 16q66 0 118.5 31t82.5 86t30 126q0 72 -30 126.5t-82.5 85t-118.5 30.5t-118 -30.5t-82.5 -85t-30.5 -126.5
q0 -71 30.5 -126t82.5 -86t118 -31zM536 0v190l10 70l-10 70v412h20v-742h-20zM656 582v180h20l-2 -180h-18z" unicode="ď" glyph-name="dcaron"></glyph>
    <glyph d="M305 -3q-71 0 -128 33.5t-90 93t-33 135.5q0 77 33 135.5t90 92t128 33.5t127 -33.5t88.5 -92t32.5 -135.5q0 -76 -32.5 -135.5t-88.5 -93t-127 -33.5zM305 16q66 0 118.5 31t82.5 86t30 126q0 72 -30 126.5t-82.5 85t-118.5 30.5t-118 -30.5t-82.5 -85t-30.5 -126.5
q0 -71 30.5 -126t82.5 -86t118 -31zM536 0v190l10 70l-10 70v412h20v-742h-20zM293 621v19h378v-19h-378z" unicode="đ" glyph-name="dcroat"></glyph>
    <glyph d="M305 -3q-71 0 -128 33.5t-90 93t-33 135.5q0 77 33 135.5t90 92t128 33.5t127 -33.5t88.5 -92t32.5 -135.5q0 -76 -32.5 -135.5t-88.5 -93t-127 -33.5zM305 16q66 0 118.5 31t82.5 86t30 126q0 72 -30 126.5t-82.5 85t-118.5 30.5t-118 -30.5t-82.5 -85t-30.5 -126.5
q0 -71 30.5 -126t82.5 -86t118 -31zM536 0v190l10 70l-10 70v412h20v-742h-20zM328 -176q-10 0 -18 8t-8 18q0 11 8 18.5t18 7.5q11 0 18.5 -7.5t7.5 -18.5q0 -10 -7.5 -18t-18.5 -8z" unicode="ḍ" glyph-name="uni1E0D"></glyph>
    <glyph d="M305 -3q-71 0 -128 33.5t-90 93t-33 135.5q0 77 33 135.5t90 92t128 33.5t127 -33.5t88.5 -92t32.5 -135.5q0 -76 -32.5 -135.5t-88.5 -93t-127 -33.5zM305 16q66 0 118.5 31t82.5 86t30 126q0 72 -30 126.5t-82.5 85t-118.5 30.5t-118 -30.5t-82.5 -85t-30.5 -126.5
q0 -71 30.5 -126t82.5 -86t118 -31zM536 0v190l10 70l-10 70v412h20v-742h-20zM192 -160v20h272v-20h-272z" unicode="ḏ" glyph-name="uni1E0F"></glyph>
    <glyph d="M305 -3q-71 0 -128 33.5t-90 93t-33 135.5q0 77 33 135.5t90 92t128 33.5t127 -33.5t88.5 -92t32.5 -135.5q0 -76 -32.5 -135.5t-88.5 -93t-127 -33.5zM305 16q66 0 118.5 31t82.5 86t30 126q0 72 -30 126.5t-82.5 85t-118.5 30.5t-118 -30.5t-82.5 -85t-30.5 -126.5
q0 -71 30.5 -126t82.5 -86t118 -31zM536 0v190l10 70l-10 70v412h20v-742h-20zM719 0v15l369 489l8 -6h-372v19h387v-15l-369 -489l-12 6h386v-19h-397zM902 607l-122 110h27l114 -96h-6l114 96h27l-122 -110h-32z" unicode="ǆ" glyph-name="uni01C6"></glyph>
    <glyph d="M312 -3q-75 0 -133 33.5t-91.5 93t-33.5 135.5q0 77 31 135.5t85.5 92t122.5 33.5t122.5 -32.5t86 -90.5t31.5 -133v-2v-3h-468v19h457l-8 -15q0 68 -29 122t-78.5 85t-113.5 31q-63 0 -113 -31t-78.5 -85t-28.5 -122v-4q0 -71 31 -126t85 -86t123 -31q52 0 98.5 20
t77.5 60l14 -14q-34 -42 -84 -63.5t-106 -21.5z" unicode="e" glyph-name="e"></glyph>
    <glyph d="M312 -3q-75 0 -133 33.5t-91.5 93t-33.5 135.5q0 77 31 135.5t85.5 92t122.5 33.5t122.5 -32.5t86 -90.5t31.5 -133v-2v-3h-468v19h457l-8 -15q0 68 -29 122t-78.5 85t-113.5 31q-63 0 -113 -31t-78.5 -85t-28.5 -122v-4q0 -71 31 -126t85 -86t123 -31q52 0 98.5 20
t77.5 60l14 -14q-34 -42 -84 -63.5t-106 -21.5zM249 607l140 110h40l-150 -110h-30z" unicode="é" glyph-name="eacute"></glyph>
    <glyph d="M312 -3q-75 0 -133 33.5t-91.5 93t-33.5 135.5q0 77 31 135.5t85.5 92t122.5 33.5t122.5 -32.5t86 -90.5t31.5 -133v-2v-3h-468v19h457l-8 -15q0 68 -29 122t-78.5 85t-113.5 31q-63 0 -113 -31t-78.5 -85t-28.5 -122v-4q0 -71 31 -126t85 -86t123 -31q52 0 98.5 20
t77.5 60l14 -14q-34 -42 -84 -63.5t-106 -21.5zM294 604q-54 0 -92 30.5t-40 82.5h19q2 -43 34.5 -68.5t78.5 -25.5q47 0 79.5 25.5t33.5 68.5h19q-1 -52 -39.5 -82.5t-92.5 -30.5z" unicode="ĕ" glyph-name="ebreve"></glyph>
    <glyph d="M312 -3q-75 0 -133 33.5t-91.5 93t-33.5 135.5q0 77 31 135.5t85.5 92t122.5 33.5t122.5 -32.5t86 -90.5t31.5 -133v-2v-3h-468v19h457l-8 -15q0 68 -29 122t-78.5 85t-113.5 31q-63 0 -113 -31t-78.5 -85t-28.5 -122v-4q0 -71 31 -126t85 -86t123 -31q52 0 98.5 20
t77.5 60l14 -14q-34 -42 -84 -63.5t-106 -21.5zM278 607l-122 110h27l114 -96h-6l114 96h27l-122 -110h-32z" unicode="ě" glyph-name="ecaron"></glyph>
    <glyph d="M312 -3q-75 0 -133 33.5t-91.5 93t-33.5 135.5q0 77 31 135.5t85.5 92t122.5 33.5t122.5 -32.5t86 -90.5t31.5 -133v-2v-3h-468v19h457l-8 -15q0 68 -29 122t-78.5 85t-113.5 31q-63 0 -113 -31t-78.5 -85t-28.5 -122v-4q0 -71 31 -126t85 -86t123 -31q52 0 98.5 20
t77.5 60l14 -14q-34 -42 -84 -63.5t-106 -21.5zM278 -213q-21 0 -39 6.5t-35 20.5l11 15q12 -11 28.5 -17t33.5 -6q31 0 51.5 15.5t20.5 44.5q0 26 -18.5 43t-52.5 17h-16l22 79h19l-17 -61q38 -2 60.5 -23t22.5 -55q0 -36 -26 -57.5t-65 -21.5zM294 604q-54 0 -92 30.5
t-40 82.5h19q2 -43 34.5 -68.5t78.5 -25.5q47 0 79.5 25.5t33.5 68.5h19q-1 -52 -39.5 -82.5t-92.5 -30.5z" unicode="ḝ" glyph-name="uni1E1D"></glyph>
    <glyph d="M312 -3q-75 0 -133 33.5t-91.5 93t-33.5 135.5q0 77 31 135.5t85.5 92t122.5 33.5t122.5 -32.5t86 -90.5t31.5 -133v-2v-3h-468v19h457l-8 -15q0 68 -29 122t-78.5 85t-113.5 31q-63 0 -113 -31t-78.5 -85t-28.5 -122v-4q0 -71 31 -126t85 -86t123 -31q52 0 98.5 20
t77.5 60l14 -14q-34 -42 -84 -63.5t-106 -21.5zM156 607l122 110h32l122 -110h-27l-114 96h6l-114 -96h-27z" unicode="ê" glyph-name="ecircumflex"></glyph>
    <glyph d="M312 -3q-75 0 -133 33.5t-91.5 93t-33.5 135.5q0 77 31 135.5t85.5 92t122.5 33.5t122.5 -32.5t86 -90.5t31.5 -133v-2v-3h-468v19h457l-8 -15q0 68 -29 122t-78.5 85t-113.5 31q-63 0 -113 -31t-78.5 -85t-28.5 -122v-4q0 -71 31 -126t85 -86t123 -31q52 0 98.5 20
t77.5 60l14 -14q-34 -42 -84 -63.5t-106 -21.5zM156 607l123 80h30l123 -80h-30l-113 67h10l-113 -67h-30zM369 682l127 100h40l-137 -100h-30z" unicode="ế" glyph-name="uni1EBF"></glyph>
    <glyph d="M312 -3q-75 0 -133 33.5t-91.5 93t-33.5 135.5q0 77 31 135.5t85.5 92t122.5 33.5t122.5 -32.5t86 -90.5t31.5 -133v-2v-3h-468v19h457l-8 -15q0 68 -29 122t-78.5 85t-113.5 31q-63 0 -113 -31t-78.5 -85t-28.5 -122v-4q0 -71 31 -126t85 -86t123 -31q52 0 98.5 20
t77.5 60l14 -14q-34 -42 -84 -63.5t-106 -21.5zM294 -176q-10 0 -18 8t-8 18q0 11 8 18.5t18 7.5q11 0 18.5 -7.5t7.5 -18.5q0 -10 -7.5 -18t-18.5 -8zM156 607l122 110h32l122 -110h-27l-114 96h6l-114 -96h-27z" unicode="ệ" glyph-name="uni1EC7"></glyph>
    <glyph d="M312 -3q-75 0 -133 33.5t-91.5 93t-33.5 135.5q0 77 31 135.5t85.5 92t122.5 33.5t122.5 -32.5t86 -90.5t31.5 -133v-2v-3h-468v19h457l-8 -15q0 68 -29 122t-78.5 85t-113.5 31q-63 0 -113 -31t-78.5 -85t-28.5 -122v-4q0 -71 31 -126t85 -86t123 -31q52 0 98.5 20
t77.5 60l14 -14q-34 -42 -84 -63.5t-106 -21.5zM156 607l123 80h30l123 -80h-30l-113 67h10l-113 -67h-30zM429 682l-137 100h40l127 -100h-30z" unicode="ề" glyph-name="uni1EC1"></glyph>
    <glyph d="M312 -3q-75 0 -133 33.5t-91.5 93t-33.5 135.5q0 77 31 135.5t85.5 92t122.5 33.5t122.5 -32.5t86 -90.5t31.5 -133v-2v-3h-468v19h457l-8 -15q0 68 -29 122t-78.5 85t-113.5 31q-63 0 -113 -31t-78.5 -85t-28.5 -122v-4q0 -71 31 -126t85 -86t123 -31q52 0 98.5 20
t77.5 60l14 -14q-34 -42 -84 -63.5t-106 -21.5zM156 607l123 80h30l123 -80h-30l-113 67h10l-113 -67h-30zM397 668l-10 15q21 10 33 24.5t12 31.5q0 16 -11.5 26t-30.5 10q-24 0 -43 -13l-8 16q11 8 24.5 12t27.5 4q28 0 44 -15t16 -40q0 -22 -13.5 -40.5t-40.5 -30.5z" unicode="ể" glyph-name="uni1EC3"></glyph>
    <glyph d="M312 -3q-75 0 -133 33.5t-91.5 93t-33.5 135.5q0 77 31 135.5t85.5 92t122.5 33.5t122.5 -32.5t86 -90.5t31.5 -133v-2v-3h-468v19h457l-8 -15q0 68 -29 122t-78.5 85t-113.5 31q-63 0 -113 -31t-78.5 -85t-28.5 -122v-4q0 -71 31 -126t85 -86t123 -31q52 0 98.5 20
t77.5 60l14 -14q-34 -42 -84 -63.5t-106 -21.5zM156 607l123 80h30l123 -80h-30l-113 67h10l-113 -67h-30zM355 720q-26 0 -45.5 13.5t-37 27t-39.5 13.5q-24 0 -38.5 -13.5t-15.5 -38.5h-19q1 32 21 51.5t52 19.5q27 0 46 -13.5t37 -27t39 -13.5q24 0 38.5 13t15.5 37h19
q-1 -31 -21 -50t-52 -19z" unicode="ễ" glyph-name="uni1EC5"></glyph>
    <glyph d="M312 -3q-75 0 -133 33.5t-91.5 93t-33.5 135.5q0 77 31 135.5t85.5 92t122.5 33.5t122.5 -32.5t86 -90.5t31.5 -133v-2v-3h-468v19h457l-8 -15q0 68 -29 122t-78.5 85t-113.5 31q-63 0 -113 -31t-78.5 -85t-28.5 -122v-4q0 -71 31 -126t85 -86t123 -31q52 0 98.5 20
t77.5 60l14 -14q-34 -42 -84 -63.5t-106 -21.5zM350 607l-118 110h34l111 -110h-27zM211 607l-118 110h34l111 -110h-27z" unicode="ȅ" glyph-name="uni0205"></glyph>
    <glyph d="M312 -3q-75 0 -133 33.5t-91.5 93t-33.5 135.5q0 77 31 135.5t85.5 92t122.5 33.5t122.5 -32.5t86 -90.5t31.5 -133v-2v-3h-468v19h457l-8 -15q0 68 -29 122t-78.5 85t-113.5 31q-63 0 -113 -31t-78.5 -85t-28.5 -122v-4q0 -71 31 -126t85 -86t123 -31q52 0 98.5 20
t77.5 60l14 -14q-34 -42 -84 -63.5t-106 -21.5zM376 641q-10 0 -18 8t-8 18q0 11 8 18.5t18 7.5q11 0 18.5 -7.5t7.5 -18.5q0 -10 -7.5 -18t-18.5 -8zM212 641q-10 0 -18 8t-8 18q0 11 8 18.5t18 7.5q11 0 18.5 -7.5t7.5 -18.5q0 -10 -7.5 -18t-18.5 -8z" unicode="ë" glyph-name="edieresis"></glyph>
    <glyph d="M312 -3q-75 0 -133 33.5t-91.5 93t-33.5 135.5q0 77 31 135.5t85.5 92t122.5 33.5t122.5 -32.5t86 -90.5t31.5 -133v-2v-3h-468v19h457l-8 -15q0 68 -29 122t-78.5 85t-113.5 31q-63 0 -113 -31t-78.5 -85t-28.5 -122v-4q0 -71 31 -126t85 -86t123 -31q52 0 98.5 20
t77.5 60l14 -14q-34 -42 -84 -63.5t-106 -21.5zM294 641q-10 0 -18 8t-8 18q0 11 8 18.5t18 7.5q11 0 18.5 -7.5t7.5 -18.5q0 -10 -7.5 -18t-18.5 -8z" unicode="ė" glyph-name="edotaccent"></glyph>
    <glyph d="M312 -3q-75 0 -133 33.5t-91.5 93t-33.5 135.5q0 77 31 135.5t85.5 92t122.5 33.5t122.5 -32.5t86 -90.5t31.5 -133v-2v-3h-468v19h457l-8 -15q0 68 -29 122t-78.5 85t-113.5 31q-63 0 -113 -31t-78.5 -85t-28.5 -122v-4q0 -71 31 -126t85 -86t123 -31q52 0 98.5 20
t77.5 60l14 -14q-34 -42 -84 -63.5t-106 -21.5zM294 -176q-10 0 -18 8t-8 18q0 11 8 18.5t18 7.5q11 0 18.5 -7.5t7.5 -18.5q0 -10 -7.5 -18t-18.5 -8z" unicode="ẹ" glyph-name="uni1EB9"></glyph>
    <glyph d="M312 -3q-75 0 -133 33.5t-91.5 93t-33.5 135.5q0 77 31 135.5t85.5 92t122.5 33.5t122.5 -32.5t86 -90.5t31.5 -133v-2v-3h-468v19h457l-8 -15q0 68 -29 122t-78.5 85t-113.5 31q-63 0 -113 -31t-78.5 -85t-28.5 -122v-4q0 -71 31 -126t85 -86t123 -31q52 0 98.5 20
t77.5 60l14 -14q-34 -42 -84 -63.5t-106 -21.5zM309 607l-150 110h40l140 -110h-30z" unicode="è" glyph-name="egrave"></glyph>
    <glyph d="M312 -3q-75 0 -133 33.5t-91.5 93t-33.5 135.5q0 77 31 135.5t85.5 92t122.5 33.5t122.5 -32.5t86 -90.5t31.5 -133v-2v-3h-468v19h457l-8 -15q0 68 -29 122t-78.5 85t-113.5 31q-63 0 -113 -31t-78.5 -85t-28.5 -122v-4q0 -71 31 -126t85 -86t123 -31q52 0 98.5 20
t77.5 60l14 -14q-34 -42 -84 -63.5t-106 -21.5zM296 603l-10 16q31 14 47 33t16 44q0 23 -16 38.5t-42 15.5q-33 0 -62 -19l-8 17q14 10 33 15.5t36 5.5q36 0 57.5 -19.5t21.5 -52.5q0 -30 -17.5 -53t-55.5 -41z" unicode="ẻ" glyph-name="uni1EBB"></glyph>
    <glyph d="M312 -3q-75 0 -133 33.5t-91.5 93t-33.5 135.5q0 77 31 135.5t85.5 92t122.5 33.5t122.5 -32.5t86 -90.5t31.5 -133v-2v-3h-468v19h457l-8 -15q0 68 -29 122t-78.5 85t-113.5 31q-63 0 -113 -31t-78.5 -85t-28.5 -122v-4q0 -71 31 -126t85 -86t123 -31q52 0 98.5 20
t77.5 60l14 -14q-34 -42 -84 -63.5t-106 -21.5zM162 607q2 53 40 83t92 30t92.5 -30t39.5 -83h-19q-1 44 -33.5 69t-79.5 25q-46 0 -78.5 -25t-34.5 -69h-19z" unicode="ȇ" glyph-name="uni0207"></glyph>
    <glyph d="M312 -3q-75 0 -133 33.5t-91.5 93t-33.5 135.5q0 77 31 135.5t85.5 92t122.5 33.5t122.5 -32.5t86 -90.5t31.5 -133v-2v-3h-468v19h457l-8 -15q0 68 -29 122t-78.5 85t-113.5 31q-63 0 -113 -31t-78.5 -85t-28.5 -122v-4q0 -71 31 -126t85 -86t123 -31q52 0 98.5 20
t77.5 60l14 -14q-34 -42 -84 -63.5t-106 -21.5zM158 652v20h272v-20h-272z" unicode="ē" glyph-name="emacron"></glyph>
    <glyph d="M312 -3q-75 0 -133 33.5t-91.5 93t-33.5 135.5q0 77 31 135.5t85.5 92t122.5 33.5t122.5 -32.5t86 -90.5t31.5 -133v-2v-3h-468v19h457l-8 -15q0 68 -29 122t-78.5 85t-113.5 31q-63 0 -113 -31t-78.5 -85t-28.5 -122v-4q0 -71 31 -126t85 -86t123 -31q52 0 98.5 20
t77.5 60l14 -14q-34 -42 -84 -63.5t-106 -21.5zM158 637v20h272v-20h-272zM249 720l127 100h40l-137 -100h-30z" unicode="ḗ" glyph-name="uni1E17"></glyph>
    <glyph d="M312 -3q-75 0 -133 33.5t-91.5 93t-33.5 135.5q0 77 31 135.5t85.5 92t122.5 33.5t122.5 -32.5t86 -90.5t31.5 -133v-2v-3h-468v19h457l-8 -15q0 68 -29 122t-78.5 85t-113.5 31q-63 0 -113 -31t-78.5 -85t-28.5 -122v-4q0 -71 31 -126t85 -86t123 -31q52 0 98.5 20
t77.5 60l14 -14q-34 -42 -84 -63.5t-106 -21.5zM158 637v20h272v-20h-272zM309 720l-137 100h40l127 -100h-30z" unicode="ḕ" glyph-name="uni1E15"></glyph>
    <glyph d="M419 -213q-39 0 -65 22t-26 62q0 29 17.5 67t75.5 87v-5q-25 -11 -52.5 -17t-56.5 -6q-75 0 -133 33.5t-91.5 93t-33.5 135.5q0 77 31 135.5t85.5 92t122.5 33.5t122.5 -32.5t86 -90.5t31.5 -133v-2v-3h-468v19h457l-8 -15q0 68 -29 122t-78.5 85t-113.5 31
q-63 0 -113 -31t-78.5 -85t-28.5 -122v-4q0 -71 31 -126t85 -86t123 -31q52 0 98.5 20t77.5 60l14 -14q-7 -9 -16 -17t-20 -18q-52 -48 -77 -79.5t-33 -53.5t-8 -43q0 -33 20.5 -49t51.5 -16q17 0 33.5 6t28.5 17l11 -15q-16 -14 -34.5 -20.5t-39.5 -6.5z" unicode="ę" glyph-name="eogonek"></glyph>
    <glyph d="M312 -3q-75 0 -133 33.5t-91.5 93t-33.5 135.5q0 77 31 135.5t85.5 92t122.5 33.5t122.5 -32.5t86 -90.5t31.5 -133v-2v-3h-468v19h457l-8 -15q0 68 -29 122t-78.5 85t-113.5 31q-63 0 -113 -31t-78.5 -85t-28.5 -122v-4q0 -71 31 -126t85 -86t123 -31q52 0 98.5 20
t77.5 60l14 -14q-34 -42 -84 -63.5t-106 -21.5zM357 619q-21 0 -37.5 10.5t-30 24t-27.5 24t-31 10.5q-24 0 -38 -18t-16 -49h-19q2 39 21.5 62.5t51.5 23.5q21 0 37.5 -10.5t30 -24t27.5 -24t31 -10.5q24 0 38.5 18t15.5 47h19q-1 -37 -21 -60.5t-52 -23.5z" unicode="ẽ" glyph-name="uni1EBD"></glyph>
    <glyph d="M275 520q75 0 133 -33.5t91.5 -92.5t33.5 -136q0 -76 -31 -135t-85 -92.5t-123 -33.5q-68 0 -122.5 33t-86 90.5t-31.5 132.5v3v2h468v-19h-457l8 15q0 -68 29 -122t79 -85t113 -31q64 0 113.5 31t78 85t28.5 122v4q0 72 -31 126.5t-85 85.5t-123 31q-52 0 -98.5 -19.5
t-77.5 -60.5l-14 14q35 42 85 63.5t105 21.5z" unicode="ə" glyph-name="uni0259"></glyph>
    <glyph d="M214 -198q-79 0 -143.5 28.5t-96.5 72.5l13 13q29 -40 89.5 -67.5t137.5 -27.5q104 0 157.5 48.5t53.5 130.5t-54.5 130.5t-169.5 48.5h-36v15l232 311l2 -7h-403v19h423v-15l-232 -311l-2 7h15q124 0 184.5 -54.5t60.5 -143.5q0 -59 -26.5 -103.5t-78 -69.5t-126.5 -25z" unicode="ʒ" glyph-name="uni0292"></glyph>
    <glyph d="M214 -198q-79 0 -143.5 28.5t-96.5 72.5l13 13q29 -40 89.5 -67.5t137.5 -27.5q104 0 157.5 48.5t53.5 130.5t-54.5 130.5t-169.5 48.5h-36v15l232 311l2 -7h-403v19h423v-15l-232 -311l-2 7h15q124 0 184.5 -54.5t60.5 -143.5q0 -59 -26.5 -103.5t-78 -69.5t-126.5 -25z
M197 607l-122 110h27l114 -96h-6l114 96h27l-122 -110h-32z" unicode="ǯ" glyph-name="uni01EF"></glyph>
    <glyph d="M123 0v618q0 57 32.5 92t92.5 35q28 0 55.5 -9t45.5 -28l-14 -14q-16 16 -38.5 24t-47.5 8q-52 0 -79 -29t-27 -84v-99v-11v-503h-20zM23 498v19h295v-19h-295z" unicode="f" glyph-name="f"></glyph>
    <glyph d="M323 -197q-70 0 -131 23t-98 63l14 14q40 -39 95 -60t120 -21q112 0 165.5 53t53.5 168v166l10 60l-10 60v188h20v-471q0 -125 -59.5 -184t-179.5 -59zM308 17q-72 0 -129.5 32.5t-91 89.5t-33.5 130q0 74 33.5 130.5t91 88.5t129.5 32q73 0 129.5 -32t89 -88.5
t32.5 -130.5q0 -73 -32.5 -130t-89 -89.5t-129.5 -32.5zM308 36q68 0 120.5 29.5t83 82.5t30.5 121q0 69 -30.5 121t-83 81.5t-120.5 29.5q-67 0 -120 -29.5t-83.5 -81.5t-30.5 -121q0 -68 30.5 -121t83.5 -82.5t120 -29.5z" unicode="g" glyph-name="g"></glyph>
    <glyph d="M323 -197q-70 0 -131 23t-98 63l14 14q40 -39 95 -60t120 -21q112 0 165.5 53t53.5 168v166l10 60l-10 60v188h20v-471q0 -125 -59.5 -184t-179.5 -59zM308 17q-72 0 -129.5 32.5t-91 89.5t-33.5 130q0 74 33.5 130.5t91 88.5t129.5 32q73 0 129.5 -32t89 -88.5
t32.5 -130.5q0 -73 -32.5 -130t-89 -89.5t-129.5 -32.5zM308 36q68 0 120.5 29.5t83 82.5t30.5 121q0 69 -30.5 121t-83 81.5t-120.5 29.5q-67 0 -120 -29.5t-83.5 -81.5t-30.5 -121q0 -68 30.5 -121t83.5 -82.5t120 -29.5zM315 604q-54 0 -92 30.5t-40 82.5h19
q2 -43 34.5 -68.5t78.5 -25.5q47 0 79.5 25.5t33.5 68.5h19q-1 -52 -39.5 -82.5t-92.5 -30.5z" unicode="ğ" glyph-name="gbreve"></glyph>
    <glyph d="M323 -197q-70 0 -131 23t-98 63l14 14q40 -39 95 -60t120 -21q112 0 165.5 53t53.5 168v166l10 60l-10 60v188h20v-471q0 -125 -59.5 -184t-179.5 -59zM308 17q-72 0 -129.5 32.5t-91 89.5t-33.5 130q0 74 33.5 130.5t91 88.5t129.5 32q73 0 129.5 -32t89 -88.5
t32.5 -130.5q0 -73 -32.5 -130t-89 -89.5t-129.5 -32.5zM308 36q68 0 120.5 29.5t83 82.5t30.5 121q0 69 -30.5 121t-83 81.5t-120.5 29.5q-67 0 -120 -29.5t-83.5 -81.5t-30.5 -121q0 -68 30.5 -121t83.5 -82.5t120 -29.5zM299 607l-122 110h27l114 -96h-6l114 96h27
l-122 -110h-32z" unicode="ǧ" glyph-name="gcaron"></glyph>
    <glyph d="M323 -197q-70 0 -131 23t-98 63l14 14q40 -39 95 -60t120 -21q112 0 165.5 53t53.5 168v166l10 60l-10 60v188h20v-471q0 -125 -59.5 -184t-179.5 -59zM308 17q-72 0 -129.5 32.5t-91 89.5t-33.5 130q0 74 33.5 130.5t91 88.5t129.5 32q73 0 129.5 -32t89 -88.5
t32.5 -130.5q0 -73 -32.5 -130t-89 -89.5t-129.5 -32.5zM308 36q68 0 120.5 29.5t83 82.5t30.5 121q0 69 -30.5 121t-83 81.5t-120.5 29.5q-67 0 -120 -29.5t-83.5 -81.5t-30.5 -121q0 -68 30.5 -121t83.5 -82.5t120 -29.5zM177 607l122 110h32l122 -110h-27l-114 96h6
l-114 -96h-27z" unicode="ĝ" glyph-name="gcircumflex"></glyph>
    <glyph d="M323 -197q-70 0 -131 23t-98 63l14 14q40 -39 95 -60t120 -21q112 0 165.5 53t53.5 168v166l10 60l-10 60v188h20v-471q0 -125 -59.5 -184t-179.5 -59zM308 17q-72 0 -129.5 32.5t-91 89.5t-33.5 130q0 74 33.5 130.5t91 88.5t129.5 32q73 0 129.5 -32t89 -88.5
t32.5 -130.5q0 -73 -32.5 -130t-89 -89.5t-129.5 -32.5zM308 36q68 0 120.5 29.5t83 82.5t30.5 121q0 69 -30.5 121t-83 81.5t-120.5 29.5q-67 0 -120 -29.5t-83.5 -81.5t-30.5 -121q0 -68 30.5 -121t83.5 -82.5t120 -29.5zM315 604q-12 0 -19 8.5t-7 17.5q0 8 2 14.5
t3 14.5l28 100h18l-24 -114l-1 11q11 0 18.5 -7.5t7.5 -18.5q0 -10 -7.5 -18t-18.5 -8z" unicode="ģ" glyph-name="uni0123"></glyph>
    <glyph d="M323 -197q-70 0 -131 23t-98 63l14 14q40 -39 95 -60t120 -21q112 0 165.5 53t53.5 168v166l10 60l-10 60v188h20v-471q0 -125 -59.5 -184t-179.5 -59zM308 17q-72 0 -129.5 32.5t-91 89.5t-33.5 130q0 74 33.5 130.5t91 88.5t129.5 32q73 0 129.5 -32t89 -88.5
t32.5 -130.5q0 -73 -32.5 -130t-89 -89.5t-129.5 -32.5zM308 36q68 0 120.5 29.5t83 82.5t30.5 121q0 69 -30.5 121t-83 81.5t-120.5 29.5q-67 0 -120 -29.5t-83.5 -81.5t-30.5 -121q0 -68 30.5 -121t83.5 -82.5t120 -29.5zM315 641q-10 0 -18 8t-8 18q0 11 8 18.5t18 7.5
q11 0 18.5 -7.5t7.5 -18.5q0 -10 -7.5 -18t-18.5 -8z" unicode="ġ" glyph-name="gdotaccent"></glyph>
    <glyph d="M323 -197q-70 0 -131 23t-98 63l14 14q40 -39 95 -60t120 -21q112 0 165.5 53t53.5 168v166l10 60l-10 60v188h20v-471q0 -125 -59.5 -184t-179.5 -59zM308 17q-72 0 -129.5 32.5t-91 89.5t-33.5 130q0 74 33.5 130.5t91 88.5t129.5 32q73 0 129.5 -32t89 -88.5
t32.5 -130.5q0 -73 -32.5 -130t-89 -89.5t-129.5 -32.5zM308 36q68 0 120.5 29.5t83 82.5t30.5 121q0 69 -30.5 121t-83 81.5t-120.5 29.5q-67 0 -120 -29.5t-83.5 -81.5t-30.5 -121q0 -68 30.5 -121t83.5 -82.5t120 -29.5zM179 652v20h272v-20h-272z" unicode="ḡ" glyph-name="uni1E21"></glyph>
    <glyph d="M323 -197q-70 0 -131 23t-98 63l14 14q40 -39 95 -60t120 -21q112 0 165.5 53t53.5 168v166l10 60l-10 60v188h20v-471q0 -125 -59.5 -184t-179.5 -59zM298 -69v19h328v-19h-328zM308 17q-72 0 -129.5 32.5t-91 89.5t-33.5 130q0 74 33.5 130.5t91 88.5t129.5 32
q73 0 129.5 -32t89 -88.5t32.5 -130.5q0 -73 -32.5 -130t-89 -89.5t-129.5 -32.5zM308 36q68 0 120.5 29.5t83 82.5t30.5 121q0 69 -30.5 121t-83 81.5t-120.5 29.5q-67 0 -120 -29.5t-83.5 -81.5t-30.5 -121q0 -68 30.5 -121t83.5 -82.5t120 -29.5z" unicode="ǥ" glyph-name="uni01E5"></glyph>
    <glyph d="M352 520q64 0 110 -24.5t71.5 -72.5t25.5 -118v-305h-20v305q0 96 -49 146t-137 50q-68 0 -117 -27.5t-75 -77t-26 -115.5v-281h-20v742h20v-372l-2 3q23 68 79 107.5t140 39.5z" unicode="h" glyph-name="h"></glyph>
    <glyph d="M352 520q64 0 110 -24.5t71.5 -72.5t25.5 -118v-305h-20v305q0 96 -49 146t-137 50q-68 0 -117 -27.5t-75 -77t-26 -115.5v-281h-20v742h20v-372l-2 3q23 68 79 107.5t140 39.5zM0 621v19h378v-19h-378z" unicode="ħ" glyph-name="hbar"></glyph>
    <glyph d="M352 520q64 0 110 -24.5t71.5 -72.5t25.5 -118v-305h-20v305q0 96 -49 146t-137 50q-68 0 -117 -27.5t-75 -77t-26 -115.5v-281h-20v742h20v-372l-2 3q23 68 79 107.5t140 39.5zM335 -198q-54 0 -92 29t-40 79h19q2 -41 34.5 -65t78.5 -24q47 0 79.5 24t33.5 65h19
q-1 -50 -39.5 -79t-92.5 -29z" unicode="ḫ" glyph-name="uni1E2B"></glyph>
    <glyph d="M352 520q64 0 110 -24.5t71.5 -72.5t25.5 -118v-305h-20v305q0 96 -49 146t-137 50q-68 0 -117 -27.5t-75 -77t-26 -115.5v-281h-20v742h20v-372l-2 3q23 68 79 107.5t140 39.5zM109 832l-122 110h27l114 -96h-6l114 96h27l-122 -110h-32z" unicode="ȟ" glyph-name="uni021F"></glyph>
    <glyph d="M352 520q64 0 110 -24.5t71.5 -72.5t25.5 -118v-305h-20v305q0 96 -49 146t-137 50q-68 0 -117 -27.5t-75 -77t-26 -115.5v-281h-20v742h20v-372l-2 3q23 68 79 107.5t140 39.5zM-13 799l122 110h32l122 -110h-27l-114 96h6l-114 -96h-27z" unicode="ĥ" glyph-name="hcircumflex"></glyph>
    <glyph d="M352 520q64 0 110 -24.5t71.5 -72.5t25.5 -118v-305h-20v305q0 96 -49 146t-137 50q-68 0 -117 -27.5t-75 -77t-26 -115.5v-281h-20v742h20v-372l-2 3q23 68 79 107.5t140 39.5zM335 -176q-10 0 -18 8t-8 18q0 11 8 18.5t18 7.5q11 0 18.5 -7.5t7.5 -18.5q0 -10 -7.5 -18
t-18.5 -8z" unicode="ḥ" glyph-name="uni1E25"></glyph>
    <glyph d="M115 0v517h20v-517h-20zM125 660q-10 0 -18 8t-8 18q0 11 8 18.5t18 7.5q11 0 18.5 -7.5t7.5 -18.5q0 -10 -7.5 -18t-18.5 -8z" unicode="i" glyph-name="i"></glyph>
    <glyph d="M115 0v517h20v-517h-20z" unicode="ı" glyph-name="dotlessi"></glyph>
    <glyph d="M115 0v517h20v-517h-20zM80 607l140 110h40l-150 -110h-30z" unicode="í" glyph-name="iacute"></glyph>
    <glyph d="M115 0v517h20v-517h-20zM125 604q-46 0 -76.5 30.5t-30.5 82.5h19q0 -43 24.5 -68.5t63.5 -25.5t63.5 25.5t24.5 68.5h19q0 -52 -30 -82.5t-77 -30.5z" unicode="ĭ" glyph-name="ibreve"></glyph>
    <glyph d="M115 0v517h20v-517h-20zM12 607l98 110h30l98 -110h-27l-88 96h4l-88 -96h-27z" unicode="î" glyph-name="icircumflex"></glyph>
    <glyph d="M115 0v517h20v-517h-20zM181 607l-118 110h34l111 -110h-27zM42 607l-118 110h34l111 -110h-27z" unicode="ȉ" glyph-name="uni0209"></glyph>
    <glyph d="M115 0v517h20v-517h-20zM181 641q-10 0 -17.5 8t-7.5 18q0 11 7.5 18.5t17.5 7.5q11 0 18 -7.5t7 -18.5q0 -10 -7 -18t-18 -8zM69 641q-10 0 -17.5 8t-7.5 18q0 11 7.5 18.5t17.5 7.5q11 0 18 -7.5t7 -18.5q0 -10 -7 -18t-18 -8z" unicode="ï" glyph-name="idieresis"></glyph>
    <glyph d="M115 0v517h20v-517h-20zM207 641q-10 0 -18 8t-8 18q0 11 8 18.5t18 7.5q11 0 18.5 -7.5t7.5 -18.5q0 -10 -7.5 -18t-18.5 -8zM43 641q-10 0 -18 8t-8 18q0 11 8 18.5t18 7.5q11 0 18.5 -7.5t7.5 -18.5q0 -10 -7.5 -18t-18.5 -8zM80 720l127 100h40l-137 -100h-30z" unicode="ḯ" glyph-name="uni1E2F"></glyph>
    <glyph d="M115 0v517h20v-517h-20zM125 641q-10 0 -18 8t-8 18q0 11 8 18.5t18 7.5q11 0 18.5 -7.5t7.5 -18.5q0 -10 -7.5 -18t-18.5 -8z" glyph-name="i.loclTRK"></glyph>
    <glyph d="M115 0v517h20v-517h-20zM125 660q-10 0 -18 8t-8 18q0 11 8 18.5t18 7.5q11 0 18.5 -7.5t7.5 -18.5q0 -10 -7.5 -18t-18.5 -8zM125 -176q-10 0 -18 8t-8 18q0 11 8 18.5t18 7.5q11 0 18.5 -7.5t7.5 -18.5q0 -10 -7.5 -18t-18.5 -8z" unicode="ị" glyph-name="uni1ECB"></glyph>
    <glyph d="M115 0v517h20v-517h-20zM140 607l-150 110h40l140 -110h-30z" unicode="ì" glyph-name="igrave"></glyph>
    <glyph d="M115 0v517h20v-517h-20zM127 603l-10 16q31 14 47 33t16 44q0 23 -16 38.5t-42 15.5q-33 0 -62 -19l-8 17q14 10 33 15.5t36 5.5q36 0 57.5 -19.5t21.5 -52.5q0 -30 -17.5 -53t-55.5 -41z" unicode="ỉ" glyph-name="uni1EC9"></glyph>
    <glyph d="M115 0v517h20v-517h-20zM18 607q0 53 30.5 83t76.5 30q47 0 77 -30t30 -83h-19q0 44 -24.5 69t-63.5 25t-63.5 -25t-24.5 -69h-19z" unicode="ȋ" glyph-name="uni020B"></glyph>
    <glyph d="M115 0v517h20v-517h-20zM125 660q-10 0 -18 8t-8 18q0 11 8 18.5t18 7.5q11 0 18.5 -7.5t7.5 -18.5q0 -10 -7.5 -18t-18.5 -8zM268 -197q-30 0 -58 9t-46 28l14 14q34 -32 89 -32q50 0 76.5 29t26.5 84v582h20v-587q0 -57 -31.5 -92t-90.5 -35zM380 660q-10 0 -18 8
t-8 18q0 11 8 18.5t18 7.5q11 0 18.5 -7.5t7.5 -18.5q0 -10 -7.5 -18t-18.5 -8z" unicode="ĳ" glyph-name="ij"></glyph>
    <glyph d="M115 0v517h20v-517h-20zM14 652v20h222v-20h-222z" unicode="ī" glyph-name="imacron"></glyph>
    <glyph d="M115 0v517h20v-517h-20zM125 660q-10 0 -18 8t-8 18q0 11 8 18.5t18 7.5q11 0 18.5 -7.5t7.5 -18.5q0 -10 -7.5 -18t-18.5 -8zM127 -213q-30 0 -48.5 22t-18.5 56q0 28 12 68t55 84l8 -17q-39 -44 -47 -76.5t-8 -57.5q0 -30 14 -45.5t33 -15.5q13 0 23 5.5t17 14.5
l11 -14q-19 -24 -51 -24z" unicode="į" glyph-name="iogonek"></glyph>
    <glyph d="M115 0v517h20v-517h-20zM177 619q-20 0 -33.5 10.5t-24.5 24t-21.5 24t-24.5 10.5q-18 0 -29 -18t-11 -49h-19q0 39 15.5 62.5t43.5 23.5q20 0 33.5 -10.5t24.5 -24t21.5 -24t24.5 -10.5q18 0 29 18t11 47h19q0 -37 -15 -60.5t-44 -23.5z" unicode="ĩ" glyph-name="itilde"></glyph>
    <glyph d="M18 -197q-30 0 -58 9t-46 28l14 14q34 -32 89 -32q50 0 76.5 29t26.5 84v582h20v-587q0 -57 -31.5 -92t-90.5 -35zM130 660q-10 0 -18 8t-8 18q0 11 8 18.5t18 7.5q11 0 18.5 -7.5t7.5 -18.5q0 -10 -7.5 -18t-18.5 -8z" unicode="j" glyph-name="j"></glyph>
    <glyph d="M18 -197q-30 0 -58 9t-46 28l14 14q34 -32 89 -32q50 0 76.5 29t26.5 84v582h20v-587q0 -57 -31.5 -92t-90.5 -35z" unicode="ȷ" glyph-name="uni0237"></glyph>
    <glyph d="M18 -197q-30 0 -58 9t-46 28l14 14q34 -32 89 -32q50 0 76.5 29t26.5 84v582h20v-587q0 -57 -31.5 -92t-90.5 -35zM17 607l98 110h30l98 -110h-27l-88 96h4l-88 -96h-27z" unicode="ĵ" glyph-name="jcircumflex"></glyph>
    <glyph d="M128 154v24l372 339h29l-225 -206l-16 -12zM115 0v742h20v-742h-20zM526 0l-242 304l16 12l252 -316h-26z" unicode="k" glyph-name="k"></glyph>
    <glyph d="M128 154v24l372 339h29l-225 -206l-16 -12zM115 0v742h20v-742h-20zM526 0l-242 304l16 12l252 -316h-26zM109 832l-122 110h27l114 -96h-6l114 96h27l-122 -110h-32z" unicode="ǩ" glyph-name="uni01E9"></glyph>
    <glyph d="M128 154v24l372 339h29l-225 -206l-16 -12zM115 0v742h20v-742h-20zM526 0l-242 304l16 12l252 -316h-26zM286 -259l20 94l1 -11q-10 0 -18 8t-8 18q0 11 7.5 18.5t18.5 7.5q12 0 19 -8.5t7 -17.5q0 -8 -2 -16l-4 -16l-23 -77h-18z" unicode="ķ" glyph-name="uni0137"></glyph>
    <glyph d="M128 154v24l372 339h29l-225 -206l-16 -12zM115 0v517h20v-517h-20zM526 0l-242 304l16 12l252 -316h-26z" unicode="ĸ" glyph-name="kgreenlandic"></glyph>
    <glyph d="M115 0v742h20v-742h-20z" unicode="l" glyph-name="l"></glyph>
    <glyph d="M115 0v742h20v-742h-20zM80 832l140 110h40l-150 -110h-30z" unicode="ĺ" glyph-name="lacute"></glyph>
    <glyph d="M115 0v742h20v-742h-20zM235 582v180h20l-2 -180h-18z" unicode="ľ" glyph-name="lcaron"></glyph>
    <glyph d="M115 0v742h20v-742h-20zM104 -259l20 94l1 -11q-10 0 -18 8t-8 18q0 11 7.5 18.5t18.5 7.5q12 0 19 -8.5t7 -17.5q0 -8 -2 -16l-4 -16l-23 -77h-18z" unicode="ļ" glyph-name="uni013C"></glyph>
    <glyph d="M115 0v742h20v-742h-20zM250 323q-10 0 -18 8t-8 18q0 11 8 18.5t18 7.5q11 0 18.5 -7.5t7.5 -18.5q0 -10 -7.5 -18t-18.5 -8z" unicode="ŀ" glyph-name="ldot"></glyph>
    <glyph d="M115 0v742h20v-742h-20zM125 -176q-10 0 -18 8t-8 18q0 11 8 18.5t18 7.5q11 0 18.5 -7.5t7.5 -18.5q0 -10 -7.5 -18t-18.5 -8z" unicode="ḷ" glyph-name="uni1E37"></glyph>
    <glyph d="M115 0v742h20v-742h-20zM268 -197q-30 0 -58 9t-46 28l14 14q34 -32 89 -32q50 0 76.5 29t26.5 84v582h20v-587q0 -57 -31.5 -92t-90.5 -35zM380 660q-10 0 -18 8t-8 18q0 11 8 18.5t18 7.5q11 0 18.5 -7.5t7.5 -18.5q0 -10 -7.5 -18t-18.5 -8z" unicode="ǉ" glyph-name="uni01C9"></glyph>
    <glyph d="M115 0v742h20v-742h-20zM-11 -160v20h272v-20h-272z" unicode="ḻ" glyph-name="uni1E3B"></glyph>
    <glyph d="M115 0v742h20v-742h-20zM34 272l-11 14l193 142l11 -14z" unicode="ł" glyph-name="lslash"></glyph>
    <glyph d="M758 520q62 0 107 -24.5t69.5 -72.5t24.5 -118v-305h-20v305q0 96 -47.5 146t-132.5 50q-66 0 -113.5 -27.5t-73 -77t-25.5 -115.5v-281h-20v305q0 96 -47.5 146t-132.5 50q-66 0 -113.5 -27.5t-73 -77t-25.5 -115.5v-281h-20v517h20v-146l-2 3q22 67 77 106.5t136 39.5
q80 0 132 -40.5t65 -120.5l-3 1q19 71 75.5 115.5t142.5 44.5z" unicode="m" glyph-name="m"></glyph>
    <glyph d="M758 520q62 0 107 -24.5t69.5 -72.5t24.5 -118v-305h-20v305q0 96 -47.5 146t-132.5 50q-66 0 -113.5 -27.5t-73 -77t-25.5 -115.5v-281h-20v305q0 96 -47.5 146t-132.5 50q-66 0 -113.5 -27.5t-73 -77t-25.5 -115.5v-281h-20v517h20v-146l-2 3q22 67 77 106.5t136 39.5
q80 0 132 -40.5t65 -120.5l-3 1q19 71 75.5 115.5t142.5 44.5zM537 -176q-10 0 -18 8t-8 18q0 11 8 18.5t18 7.5q11 0 18.5 -7.5t7.5 -18.5q0 -10 -7.5 -18t-18.5 -8z" unicode="ṃ" glyph-name="uni1E43"></glyph>
    <glyph d="M352 520q64 0 110 -24.5t71.5 -72.5t25.5 -118v-305h-20v305q0 96 -49 146t-137 50q-68 0 -117 -27.5t-75 -77t-26 -115.5v-281h-20v517h20v-147l-2 3q23 68 79 107.5t140 39.5z" unicode="n" glyph-name="n"></glyph>
    <glyph d="M352 520q64 0 110 -24.5t71.5 -72.5t25.5 -118v-305h-20v305q0 96 -49 146t-137 50q-68 0 -117 -27.5t-75 -77t-26 -115.5v-281h-20v517h20v-147l-2 3q23 68 79 107.5t140 39.5zM290 607l140 110h40l-150 -110h-30z" unicode="ń" glyph-name="nacute"></glyph>
    <glyph d="M63 556l31 148v-11q-12 0 -20 8t-8 18q0 11 7.5 18.5t18.5 7.5q12 0 19 -8.5t7 -17.5q0 -5 -0.5 -10t-1.5 -9t-2 -10l-33 -134h-18zM391 520q64 0 110 -24.5t71.5 -72.5t25.5 -118v-305h-20v305q0 96 -49 146t-137 50q-68 0 -117 -27.5t-75 -77t-26 -115.5v-281h-20v517
h20v-147l-2 3q23 68 79 107.5t140 39.5z" unicode="ŉ" glyph-name="napostrophe"></glyph>
    <glyph d="M352 520q64 0 110 -24.5t71.5 -72.5t25.5 -118v-305h-20v305q0 96 -49 146t-137 50q-68 0 -117 -27.5t-75 -77t-26 -115.5v-281h-20v517h20v-147l-2 3q23 68 79 107.5t140 39.5zM319 607l-122 110h27l114 -96h-6l114 96h27l-122 -110h-32z" unicode="ň" glyph-name="ncaron"></glyph>
    <glyph d="M352 520q64 0 110 -24.5t71.5 -72.5t25.5 -118v-305h-20v305q0 96 -49 146t-137 50q-68 0 -117 -27.5t-75 -77t-26 -115.5v-281h-20v517h20v-147l-2 3q23 68 79 107.5t140 39.5zM314 -259l20 94l1 -11q-10 0 -18 8t-8 18q0 11 7.5 18.5t18.5 7.5q12 0 19 -8.5t7 -17.5
q0 -8 -2 -16l-4 -16l-23 -77h-18z" unicode="ņ" glyph-name="uni0146"></glyph>
    <glyph d="M352 520q64 0 110 -24.5t71.5 -72.5t25.5 -118v-305h-20v305q0 96 -49 146t-137 50q-68 0 -117 -27.5t-75 -77t-26 -115.5v-281h-20v517h20v-147l-2 3q23 68 79 107.5t140 39.5zM335 641q-10 0 -18 8t-8 18q0 11 8 18.5t18 7.5q11 0 18.5 -7.5t7.5 -18.5q0 -10 -7.5 -18
t-18.5 -8z" unicode="ṅ" glyph-name="uni1E45"></glyph>
    <glyph d="M352 520q64 0 110 -24.5t71.5 -72.5t25.5 -118v-305h-20v305q0 96 -49 146t-137 50q-68 0 -117 -27.5t-75 -77t-26 -115.5v-281h-20v517h20v-147l-2 3q23 68 79 107.5t140 39.5zM335 -176q-10 0 -18 8t-8 18q0 11 8 18.5t18 7.5q11 0 18.5 -7.5t7.5 -18.5q0 -10 -7.5 -18
t-18.5 -8z" unicode="ṇ" glyph-name="uni1E47"></glyph>
    <glyph d="M352 520q64 0 110 -24.5t71.5 -72.5t25.5 -118v-375q0 -57 -31.5 -92t-90.5 -35q-30 0 -58 9t-46 28l14 14q34 -32 89 -32q50 0 76.5 29t26.5 84v370q0 96 -49 146t-137 50q-68 0 -117 -27.5t-75 -77t-26 -115.5v-281h-20v517h20v-147l-2 3q23 68 79 107.5t140 39.5z" unicode="ŋ" glyph-name="eng"></glyph>
    <glyph d="M352 520q64 0 110 -24.5t71.5 -72.5t25.5 -118v-305h-20v305q0 96 -49 146t-137 50q-68 0 -117 -27.5t-75 -77t-26 -115.5v-281h-20v517h20v-147l-2 3q23 68 79 107.5t140 39.5zM686 -197q-30 0 -58 9t-46 28l14 14q34 -32 89 -32q50 0 76.5 29t26.5 84v582h20v-587
q0 -57 -31.5 -92t-90.5 -35zM798 660q-10 0 -18 8t-8 18q0 11 8 18.5t18 7.5q11 0 18.5 -7.5t7.5 -18.5q0 -10 -7.5 -18t-18.5 -8z" unicode="ǌ" glyph-name="uni01CC"></glyph>
    <glyph d="M352 520q64 0 110 -24.5t71.5 -72.5t25.5 -118v-305h-20v305q0 96 -49 146t-137 50q-68 0 -117 -27.5t-75 -77t-26 -115.5v-281h-20v517h20v-147l-2 3q23 68 79 107.5t140 39.5zM199 -160v20h272v-20h-272z" unicode="ṉ" glyph-name="uni1E49"></glyph>
    <glyph d="M352 520q64 0 110 -24.5t71.5 -72.5t25.5 -118v-305h-20v305q0 96 -49 146t-137 50q-68 0 -117 -27.5t-75 -77t-26 -115.5v-281h-20v517h20v-147l-2 3q23 68 79 107.5t140 39.5zM398 619q-21 0 -37.5 10.5t-30 24t-27.5 24t-31 10.5q-24 0 -38 -18t-16 -49h-19
q2 39 21.5 62.5t51.5 23.5q21 0 37.5 -10.5t30 -24t27.5 -24t31 -10.5q24 0 38.5 18t15.5 47h19q-1 -37 -21 -60.5t-52 -23.5z" unicode="ñ" glyph-name="ntilde"></glyph>
    <glyph d="M305 -3q-72 0 -128.5 33.5t-89.5 93t-33 135.5q0 77 33 135.5t89.5 92t128.5 33.5t129 -33.5t89.5 -92t32.5 -135.5q0 -76 -32.5 -135.5t-89.5 -93t-129 -33.5zM305 16q66 0 118.5 31t82.5 86t30 126q0 72 -30 126.5t-82.5 85t-118.5 30.5t-118 -30.5t-82.5 -85
t-30.5 -126.5q0 -71 30.5 -126t82.5 -86t118 -31z" unicode="o" glyph-name="o"></glyph>
    <glyph d="M305 -3q-72 0 -128.5 33.5t-89.5 93t-33 135.5q0 77 33 135.5t89.5 92t128.5 33.5t129 -33.5t89.5 -92t32.5 -135.5q0 -76 -32.5 -135.5t-89.5 -93t-129 -33.5zM305 16q66 0 118.5 31t82.5 86t30 126q0 72 -30 126.5t-82.5 85t-118.5 30.5t-118 -30.5t-82.5 -85
t-30.5 -126.5q0 -71 30.5 -126t82.5 -86t118 -31zM260 607l140 110h40l-150 -110h-30z" unicode="ó" glyph-name="oacute"></glyph>
    <glyph d="M305 -3q-72 0 -128.5 33.5t-89.5 93t-33 135.5q0 77 33 135.5t89.5 92t128.5 33.5t129 -33.5t89.5 -92t32.5 -135.5q0 -76 -32.5 -135.5t-89.5 -93t-129 -33.5zM305 16q66 0 118.5 31t82.5 86t30 126q0 72 -30 126.5t-82.5 85t-118.5 30.5t-118 -30.5t-82.5 -85
t-30.5 -126.5q0 -71 30.5 -126t82.5 -86t118 -31zM305 604q-54 0 -92 30.5t-40 82.5h19q2 -43 34.5 -68.5t78.5 -25.5q47 0 79.5 25.5t33.5 68.5h19q-1 -52 -39.5 -82.5t-92.5 -30.5z" unicode="ŏ" glyph-name="obreve"></glyph>
    <glyph d="M305 -3q-72 0 -128.5 33.5t-89.5 93t-33 135.5q0 77 33 135.5t89.5 92t128.5 33.5t129 -33.5t89.5 -92t32.5 -135.5q0 -76 -32.5 -135.5t-89.5 -93t-129 -33.5zM305 16q66 0 118.5 31t82.5 86t30 126q0 72 -30 126.5t-82.5 85t-118.5 30.5t-118 -30.5t-82.5 -85
t-30.5 -126.5q0 -71 30.5 -126t82.5 -86t118 -31zM167 607l122 110h32l122 -110h-27l-114 96h6l-114 -96h-27z" unicode="ô" glyph-name="ocircumflex"></glyph>
    <glyph d="M305 -3q-72 0 -128.5 33.5t-89.5 93t-33 135.5q0 77 33 135.5t89.5 92t128.5 33.5t129 -33.5t89.5 -92t32.5 -135.5q0 -76 -32.5 -135.5t-89.5 -93t-129 -33.5zM305 16q66 0 118.5 31t82.5 86t30 126q0 72 -30 126.5t-82.5 85t-118.5 30.5t-118 -30.5t-82.5 -85
t-30.5 -126.5q0 -71 30.5 -126t82.5 -86t118 -31zM167 607l123 80h30l123 -80h-30l-113 67h10l-113 -67h-30zM380 682l127 100h40l-137 -100h-30z" unicode="ố" glyph-name="uni1ED1"></glyph>
    <glyph d="M305 -3q-72 0 -128.5 33.5t-89.5 93t-33 135.5q0 77 33 135.5t89.5 92t128.5 33.5t129 -33.5t89.5 -92t32.5 -135.5q0 -76 -32.5 -135.5t-89.5 -93t-129 -33.5zM305 16q66 0 118.5 31t82.5 86t30 126q0 72 -30 126.5t-82.5 85t-118.5 30.5t-118 -30.5t-82.5 -85
t-30.5 -126.5q0 -71 30.5 -126t82.5 -86t118 -31zM305 -176q-10 0 -18 8t-8 18q0 11 8 18.5t18 7.5q11 0 18.5 -7.5t7.5 -18.5q0 -10 -7.5 -18t-18.5 -8zM167 607l122 110h32l122 -110h-27l-114 96h6l-114 -96h-27z" unicode="ộ" glyph-name="uni1ED9"></glyph>
    <glyph d="M305 -3q-72 0 -128.5 33.5t-89.5 93t-33 135.5q0 77 33 135.5t89.5 92t128.5 33.5t129 -33.5t89.5 -92t32.5 -135.5q0 -76 -32.5 -135.5t-89.5 -93t-129 -33.5zM305 16q66 0 118.5 31t82.5 86t30 126q0 72 -30 126.5t-82.5 85t-118.5 30.5t-118 -30.5t-82.5 -85
t-30.5 -126.5q0 -71 30.5 -126t82.5 -86t118 -31zM167 607l123 80h30l123 -80h-30l-113 67h10l-113 -67h-30zM440 682l-137 100h40l127 -100h-30z" unicode="ồ" glyph-name="uni1ED3"></glyph>
    <glyph d="M305 -3q-72 0 -128.5 33.5t-89.5 93t-33 135.5q0 77 33 135.5t89.5 92t128.5 33.5t129 -33.5t89.5 -92t32.5 -135.5q0 -76 -32.5 -135.5t-89.5 -93t-129 -33.5zM305 16q66 0 118.5 31t82.5 86t30 126q0 72 -30 126.5t-82.5 85t-118.5 30.5t-118 -30.5t-82.5 -85
t-30.5 -126.5q0 -71 30.5 -126t82.5 -86t118 -31zM167 607l123 80h30l123 -80h-30l-113 67h10l-113 -67h-30zM408 668l-10 15q21 10 33 24.5t12 31.5q0 16 -11.5 26t-30.5 10q-24 0 -43 -13l-8 16q11 8 24.5 12t27.5 4q28 0 44 -15t16 -40q0 -22 -13.5 -40.5t-40.5 -30.5z" unicode="ổ" glyph-name="uni1ED5"></glyph>
    <glyph d="M305 -3q-72 0 -128.5 33.5t-89.5 93t-33 135.5q0 77 33 135.5t89.5 92t128.5 33.5t129 -33.5t89.5 -92t32.5 -135.5q0 -76 -32.5 -135.5t-89.5 -93t-129 -33.5zM305 16q66 0 118.5 31t82.5 86t30 126q0 72 -30 126.5t-82.5 85t-118.5 30.5t-118 -30.5t-82.5 -85
t-30.5 -126.5q0 -71 30.5 -126t82.5 -86t118 -31zM167 607l123 80h30l123 -80h-30l-113 67h10l-113 -67h-30zM366 720q-26 0 -45.5 13.5t-37 27t-39.5 13.5q-24 0 -38.5 -13.5t-15.5 -38.5h-19q1 32 21 51.5t52 19.5q27 0 46 -13.5t37 -27t39 -13.5q24 0 38.5 13t15.5 37h19
q-1 -31 -21 -50t-52 -19z" unicode="ỗ" glyph-name="uni1ED7"></glyph>
    <glyph d="M305 -3q-72 0 -128.5 33.5t-89.5 93t-33 135.5q0 77 33 135.5t89.5 92t128.5 33.5t129 -33.5t89.5 -92t32.5 -135.5q0 -76 -32.5 -135.5t-89.5 -93t-129 -33.5zM305 16q66 0 118.5 31t82.5 86t30 126q0 72 -30 126.5t-82.5 85t-118.5 30.5t-118 -30.5t-82.5 -85
t-30.5 -126.5q0 -71 30.5 -126t82.5 -86t118 -31zM361 607l-118 110h34l111 -110h-27zM222 607l-118 110h34l111 -110h-27z" unicode="ȍ" glyph-name="uni020D"></glyph>
    <glyph d="M305 -3q-72 0 -128.5 33.5t-89.5 93t-33 135.5q0 77 33 135.5t89.5 92t128.5 33.5t129 -33.5t89.5 -92t32.5 -135.5q0 -76 -32.5 -135.5t-89.5 -93t-129 -33.5zM305 16q66 0 118.5 31t82.5 86t30 126q0 72 -30 126.5t-82.5 85t-118.5 30.5t-118 -30.5t-82.5 -85
t-30.5 -126.5q0 -71 30.5 -126t82.5 -86t118 -31zM387 641q-10 0 -18 8t-8 18q0 11 8 18.5t18 7.5q11 0 18.5 -7.5t7.5 -18.5q0 -10 -7.5 -18t-18.5 -8zM223 641q-10 0 -18 8t-8 18q0 11 8 18.5t18 7.5q11 0 18.5 -7.5t7.5 -18.5q0 -10 -7.5 -18t-18.5 -8z" unicode="ö" glyph-name="odieresis"></glyph>
    <glyph d="M305 -3q-72 0 -128.5 33.5t-89.5 93t-33 135.5q0 77 33 135.5t89.5 92t128.5 33.5t129 -33.5t89.5 -92t32.5 -135.5q0 -76 -32.5 -135.5t-89.5 -93t-129 -33.5zM305 16q66 0 118.5 31t82.5 86t30 126q0 72 -30 126.5t-82.5 85t-118.5 30.5t-118 -30.5t-82.5 -85
t-30.5 -126.5q0 -71 30.5 -126t82.5 -86t118 -31zM387 641q-10 0 -18 8t-8 18q0 11 8 18.5t18 7.5q11 0 18.5 -7.5t7.5 -18.5q0 -10 -7.5 -18t-18.5 -8zM223 641q-10 0 -18 8t-8 18q0 11 8 18.5t18 7.5q11 0 18.5 -7.5t7.5 -18.5q0 -10 -7.5 -18t-18.5 -8zM169 750v20h272
v-20h-272z" unicode="ȫ" glyph-name="uni022B"></glyph>
    <glyph d="M305 -3q-72 0 -128.5 33.5t-89.5 93t-33 135.5q0 77 33 135.5t89.5 92t128.5 33.5t129 -33.5t89.5 -92t32.5 -135.5q0 -76 -32.5 -135.5t-89.5 -93t-129 -33.5zM305 16q66 0 118.5 31t82.5 86t30 126q0 72 -30 126.5t-82.5 85t-118.5 30.5t-118 -30.5t-82.5 -85
t-30.5 -126.5q0 -71 30.5 -126t82.5 -86t118 -31zM305 641q-10 0 -18 8t-8 18q0 11 8 18.5t18 7.5q11 0 18.5 -7.5t7.5 -18.5q0 -10 -7.5 -18t-18.5 -8zM169 750v20h272v-20h-272z" unicode="ȱ" glyph-name="uni0231"></glyph>
    <glyph d="M305 -3q-72 0 -128.5 33.5t-89.5 93t-33 135.5q0 77 33 135.5t89.5 92t128.5 33.5t129 -33.5t89.5 -92t32.5 -135.5q0 -76 -32.5 -135.5t-89.5 -93t-129 -33.5zM305 16q66 0 118.5 31t82.5 86t30 126q0 72 -30 126.5t-82.5 85t-118.5 30.5t-118 -30.5t-82.5 -85
t-30.5 -126.5q0 -71 30.5 -126t82.5 -86t118 -31zM305 -176q-10 0 -18 8t-8 18q0 11 8 18.5t18 7.5q11 0 18.5 -7.5t7.5 -18.5q0 -10 -7.5 -18t-18.5 -8z" unicode="ọ" glyph-name="uni1ECD"></glyph>
    <glyph d="M305 -3q-72 0 -128.5 33.5t-89.5 93t-33 135.5q0 77 33 135.5t89.5 92t128.5 33.5t129 -33.5t89.5 -92t32.5 -135.5q0 -76 -32.5 -135.5t-89.5 -93t-129 -33.5zM305 16q66 0 118.5 31t82.5 86t30 126q0 72 -30 126.5t-82.5 85t-118.5 30.5t-118 -30.5t-82.5 -85
t-30.5 -126.5q0 -71 30.5 -126t82.5 -86t118 -31zM320 607l-150 110h40l140 -110h-30z" unicode="ò" glyph-name="ograve"></glyph>
    <glyph d="M305 -3q-72 0 -128.5 33.5t-89.5 93t-33 135.5q0 77 33 135.5t89.5 92t128.5 33.5t129 -33.5t89.5 -92t32.5 -135.5q0 -76 -32.5 -135.5t-89.5 -93t-129 -33.5zM305 16q66 0 118.5 31t82.5 86t30 126q0 72 -30 126.5t-82.5 85t-118.5 30.5t-118 -30.5t-82.5 -85
t-30.5 -126.5q0 -71 30.5 -126t82.5 -86t118 -31zM307 603l-10 16q31 14 47 33t16 44q0 23 -16 38.5t-42 15.5q-33 0 -62 -19l-8 17q14 10 33 15.5t36 5.5q36 0 57.5 -19.5t21.5 -52.5q0 -30 -17.5 -53t-55.5 -41z" unicode="ỏ" glyph-name="uni1ECF"></glyph>
    <glyph d="M305 -3q-72 0 -128.5 33.5t-89.5 93t-33 135.5q0 77 33 135.5t89.5 92t128.5 33.5q28 0 46.5 -1t37.5 -2.5t46 -1.5q47 0 69 22.5t22 50.5q0 20 -6 36.5t-14 30.5l18 8q10 -15 16 -34.5t6 -39.5q0 -24 -12 -45.5t-36 -34.5t-62 -13q-7 0 -15 0.5t-22 1.5l-9 8
q74 -25 120 -90.5t46 -156.5q0 -76 -32.5 -135.5t-89.5 -93t-129 -33.5zM305 16q66 0 118.5 31t82.5 86t30 126q0 72 -30 126.5t-82.5 85t-118.5 30.5t-118 -30.5t-82.5 -85t-30.5 -126.5q0 -71 30.5 -126t82.5 -86t118 -31z" unicode="ơ" glyph-name="ohorn"></glyph>
    <glyph d="M305 -3q-72 0 -128.5 33.5t-89.5 93t-33 135.5q0 77 33 135.5t89.5 92t128.5 33.5q28 0 46.5 -1t37.5 -2.5t46 -1.5q47 0 69 22.5t22 50.5q0 20 -6 36.5t-14 30.5l18 8q10 -15 16 -34.5t6 -39.5q0 -24 -12 -45.5t-36 -34.5t-62 -13q-7 0 -15 0.5t-22 1.5l-9 8
q74 -25 120 -90.5t46 -156.5q0 -76 -32.5 -135.5t-89.5 -93t-129 -33.5zM305 16q66 0 118.5 31t82.5 86t30 126q0 72 -30 126.5t-82.5 85t-118.5 30.5t-118 -30.5t-82.5 -85t-30.5 -126.5q0 -71 30.5 -126t82.5 -86t118 -31zM260 607l140 110h40l-150 -110h-30z" unicode="ớ" glyph-name="uni1EDB"></glyph>
    <glyph d="M305 -3q-72 0 -128.5 33.5t-89.5 93t-33 135.5q0 77 33 135.5t89.5 92t128.5 33.5q28 0 46.5 -1t37.5 -2.5t46 -1.5q47 0 69 22.5t22 50.5q0 20 -6 36.5t-14 30.5l18 8q10 -15 16 -34.5t6 -39.5q0 -24 -12 -45.5t-36 -34.5t-62 -13q-7 0 -15 0.5t-22 1.5l-9 8
q74 -25 120 -90.5t46 -156.5q0 -76 -32.5 -135.5t-89.5 -93t-129 -33.5zM305 16q66 0 118.5 31t82.5 86t30 126q0 72 -30 126.5t-82.5 85t-118.5 30.5t-118 -30.5t-82.5 -85t-30.5 -126.5q0 -71 30.5 -126t82.5 -86t118 -31zM305 -176q-10 0 -18 8t-8 18q0 11 8 18.5t18 7.5
q11 0 18.5 -7.5t7.5 -18.5q0 -10 -7.5 -18t-18.5 -8z" unicode="ợ" glyph-name="uni1EE3"></glyph>
    <glyph d="M305 -3q-72 0 -128.5 33.5t-89.5 93t-33 135.5q0 77 33 135.5t89.5 92t128.5 33.5q28 0 46.5 -1t37.5 -2.5t46 -1.5q47 0 69 22.5t22 50.5q0 20 -6 36.5t-14 30.5l18 8q10 -15 16 -34.5t6 -39.5q0 -24 -12 -45.5t-36 -34.5t-62 -13q-7 0 -15 0.5t-22 1.5l-9 8
q74 -25 120 -90.5t46 -156.5q0 -76 -32.5 -135.5t-89.5 -93t-129 -33.5zM305 16q66 0 118.5 31t82.5 86t30 126q0 72 -30 126.5t-82.5 85t-118.5 30.5t-118 -30.5t-82.5 -85t-30.5 -126.5q0 -71 30.5 -126t82.5 -86t118 -31zM320 607l-150 110h40l140 -110h-30z" unicode="ờ" glyph-name="uni1EDD"></glyph>
    <glyph d="M305 -3q-72 0 -128.5 33.5t-89.5 93t-33 135.5q0 77 33 135.5t89.5 92t128.5 33.5q28 0 46.5 -1t37.5 -2.5t46 -1.5q47 0 69 22.5t22 50.5q0 20 -6 36.5t-14 30.5l18 8q10 -15 16 -34.5t6 -39.5q0 -24 -12 -45.5t-36 -34.5t-62 -13q-7 0 -15 0.5t-22 1.5l-9 8
q74 -25 120 -90.5t46 -156.5q0 -76 -32.5 -135.5t-89.5 -93t-129 -33.5zM305 16q66 0 118.5 31t82.5 86t30 126q0 72 -30 126.5t-82.5 85t-118.5 30.5t-118 -30.5t-82.5 -85t-30.5 -126.5q0 -71 30.5 -126t82.5 -86t118 -31zM307 603l-10 16q31 14 47 33t16 44
q0 23 -16 38.5t-42 15.5q-33 0 -62 -19l-8 17q14 10 33 15.5t36 5.5q36 0 57.5 -19.5t21.5 -52.5q0 -30 -17.5 -53t-55.5 -41z" unicode="ở" glyph-name="uni1EDF"></glyph>
    <glyph d="M372 619q-21 0 -37.5 10.5t-30 24t-27.5 24t-31 10.5q-24 0 -38 -18t-16 -49h-19q2 39 21.5 62.5t51.5 23.5q21 0 37.5 -10.5t30 -24t27.5 -24t31 -10.5q24 0 38.5 18t15.5 47h19q-1 -37 -21 -60.5t-52 -23.5zM305 -3q-72 0 -128.5 33.5t-89.5 93t-33 135.5
q0 77 33 135.5t89.5 92t128.5 33.5q28 0 46.5 -1t37.5 -2.5t46 -1.5q47 0 69 22.5t22 50.5q0 20 -6 36.5t-14 30.5l18 8q10 -15 16 -34.5t6 -39.5q0 -24 -12 -45.5t-36 -34.5t-62 -13q-7 0 -15 0.5t-22 1.5l-9 8q74 -25 120 -90.5t46 -156.5q0 -76 -32.5 -135.5t-89.5 -93
t-129 -33.5zM305 16q66 0 118.5 31t82.5 86t30 126q0 72 -30 126.5t-82.5 85t-118.5 30.5t-118 -30.5t-82.5 -85t-30.5 -126.5q0 -71 30.5 -126t82.5 -86t118 -31z" unicode="ỡ" glyph-name="uni1EE1"></glyph>
    <glyph d="M305 -3q-72 0 -128.5 33.5t-89.5 93t-33 135.5q0 77 33 135.5t89.5 92t128.5 33.5t129 -33.5t89.5 -92t32.5 -135.5q0 -76 -32.5 -135.5t-89.5 -93t-129 -33.5zM305 16q66 0 118.5 31t82.5 86t30 126q0 72 -30 126.5t-82.5 85t-118.5 30.5t-118 -30.5t-82.5 -85
t-30.5 -126.5q0 -71 30.5 -126t82.5 -86t118 -31zM361 607l111 110h34l-118 -110h-27zM222 607l111 110h34l-118 -110h-27z" unicode="ő" glyph-name="ohungarumlaut"></glyph>
    <glyph d="M305 -3q-72 0 -128.5 33.5t-89.5 93t-33 135.5q0 77 33 135.5t89.5 92t128.5 33.5t129 -33.5t89.5 -92t32.5 -135.5q0 -76 -32.5 -135.5t-89.5 -93t-129 -33.5zM305 16q66 0 118.5 31t82.5 86t30 126q0 72 -30 126.5t-82.5 85t-118.5 30.5t-118 -30.5t-82.5 -85
t-30.5 -126.5q0 -71 30.5 -126t82.5 -86t118 -31zM173 607q2 53 40 83t92 30t92.5 -30t39.5 -83h-19q-1 44 -33.5 69t-79.5 25q-46 0 -78.5 -25t-34.5 -69h-19z" unicode="ȏ" glyph-name="uni020F"></glyph>
    <glyph d="M305 -3q-72 0 -128.5 33.5t-89.5 93t-33 135.5q0 77 33 135.5t89.5 92t128.5 33.5t129 -33.5t89.5 -92t32.5 -135.5q0 -76 -32.5 -135.5t-89.5 -93t-129 -33.5zM305 16q66 0 118.5 31t82.5 86t30 126q0 72 -30 126.5t-82.5 85t-118.5 30.5t-118 -30.5t-82.5 -85
t-30.5 -126.5q0 -71 30.5 -126t82.5 -86t118 -31zM169 652v20h272v-20h-272z" unicode="ō" glyph-name="omacron"></glyph>
    <glyph d="M305 -3q-72 0 -128.5 33.5t-89.5 93t-33 135.5q0 77 33 135.5t89.5 92t128.5 33.5t129 -33.5t89.5 -92t32.5 -135.5q0 -76 -32.5 -135.5t-89.5 -93t-129 -33.5zM305 16q66 0 118.5 31t82.5 86t30 126q0 72 -30 126.5t-82.5 85t-118.5 30.5t-118 -30.5t-82.5 -85
t-30.5 -126.5q0 -71 30.5 -126t82.5 -86t118 -31zM169 637v20h272v-20h-272zM260 720l127 100h40l-137 -100h-30z" unicode="ṓ" glyph-name="uni1E53"></glyph>
    <glyph d="M305 -3q-72 0 -128.5 33.5t-89.5 93t-33 135.5q0 77 33 135.5t89.5 92t128.5 33.5t129 -33.5t89.5 -92t32.5 -135.5q0 -76 -32.5 -135.5t-89.5 -93t-129 -33.5zM305 16q66 0 118.5 31t82.5 86t30 126q0 72 -30 126.5t-82.5 85t-118.5 30.5t-118 -30.5t-82.5 -85
t-30.5 -126.5q0 -71 30.5 -126t82.5 -86t118 -31zM169 637v20h272v-20h-272zM320 720l-137 100h40l127 -100h-30z" unicode="ṑ" glyph-name="uni1E51"></glyph>
    <glyph d="M334 -213q-39 0 -65 22t-26 61q0 21 10 45t38 50t83 51l-11 -14q-19 -3 -32 -4t-26 -1q-72 0 -128.5 33.5t-89.5 93t-33 135.5q0 77 33 135.5t89.5 92t128.5 33.5t129 -33.5t89.5 -92t32.5 -135.5q0 -84 -38.5 -146t-105.5 -94q-66 -31 -98 -57.5t-41.5 -49t-9.5 -42.5
q0 -32 20.5 -48t51.5 -16q17 0 33.5 6t28.5 17l11 -15q-16 -14 -34.5 -20.5t-39.5 -6.5zM305 16q66 0 118.5 31t82.5 86t30 126q0 72 -30 126.5t-82.5 85t-118.5 30.5t-118 -30.5t-82.5 -85t-30.5 -126.5q0 -71 30.5 -126t82.5 -86t118 -31z" unicode="ǫ" glyph-name="uni01EB"></glyph>
    <glyph d="M305 -3q-72 0 -128.5 33.5t-89.5 93t-33 135.5q0 77 33 135.5t89.5 92t128.5 33.5t129 -33.5t89.5 -92t32.5 -135.5q0 -76 -32.5 -135.5t-89.5 -93t-129 -33.5zM305 16q66 0 118.5 31t82.5 86t30 126q0 72 -30 126.5t-82.5 85t-118.5 30.5t-118 -30.5t-82.5 -85
t-30.5 -126.5q0 -71 30.5 -126t82.5 -86t118 -31zM70 -70l446 657h23l-446 -657h-23z" unicode="ø" glyph-name="oslash"></glyph>
    <glyph d="M305 -3q-72 0 -128.5 33.5t-89.5 93t-33 135.5q0 77 33 135.5t89.5 92t128.5 33.5t129 -33.5t89.5 -92t32.5 -135.5q0 -76 -32.5 -135.5t-89.5 -93t-129 -33.5zM305 16q66 0 118.5 31t82.5 86t30 126q0 72 -30 126.5t-82.5 85t-118.5 30.5t-118 -30.5t-82.5 -85
t-30.5 -126.5q0 -71 30.5 -126t82.5 -86t118 -31zM70 -70l446 657h23l-446 -657h-23zM260 607l140 110h40l-150 -110h-30z" unicode="ǿ" glyph-name="oslashacute"></glyph>
    <glyph d="M305 -3q-72 0 -128.5 33.5t-89.5 93t-33 135.5q0 77 33 135.5t89.5 92t128.5 33.5t129 -33.5t89.5 -92t32.5 -135.5q0 -76 -32.5 -135.5t-89.5 -93t-129 -33.5zM305 16q66 0 118.5 31t82.5 86t30 126q0 72 -30 126.5t-82.5 85t-118.5 30.5t-118 -30.5t-82.5 -85
t-30.5 -126.5q0 -71 30.5 -126t82.5 -86t118 -31zM368 619q-21 0 -37.5 10.5t-30 24t-27.5 24t-31 10.5q-24 0 -38 -18t-16 -49h-19q2 39 21.5 62.5t51.5 23.5q21 0 37.5 -10.5t30 -24t27.5 -24t31 -10.5q24 0 38.5 18t15.5 47h19q-1 -37 -21 -60.5t-52 -23.5z" unicode="õ" glyph-name="otilde"></glyph>
    <glyph d="M305 -3q-72 0 -128.5 33.5t-89.5 93t-33 135.5q0 77 33 135.5t89.5 92t128.5 33.5t129 -33.5t89.5 -92t32.5 -135.5q0 -76 -32.5 -135.5t-89.5 -93t-129 -33.5zM305 16q66 0 118.5 31t82.5 86t30 126q0 72 -30 126.5t-82.5 85t-118.5 30.5t-118 -30.5t-82.5 -85
t-30.5 -126.5q0 -71 30.5 -126t82.5 -86t118 -31zM366 622q-26 0 -45.5 13.5t-37 27t-39.5 13.5q-24 0 -38.5 -13.5t-15.5 -38.5h-19q1 32 21 51.5t52 19.5q27 0 46 -13.5t37 -27t39 -13.5q24 0 38.5 13t15.5 37h19q-1 -31 -21 -50t-52 -19zM260 720l127 100h40l-137 -100
h-30z" unicode="ṍ" glyph-name="uni1E4D"></glyph>
    <glyph d="M305 -3q-72 0 -128.5 33.5t-89.5 93t-33 135.5q0 77 33 135.5t89.5 92t128.5 33.5t129 -33.5t89.5 -92t32.5 -135.5q0 -76 -32.5 -135.5t-89.5 -93t-129 -33.5zM305 16q66 0 118.5 31t82.5 86t30 126q0 72 -30 126.5t-82.5 85t-118.5 30.5t-118 -30.5t-82.5 -85
t-30.5 -126.5q0 -71 30.5 -126t82.5 -86t118 -31zM366 622q-26 0 -45.5 13.5t-37 27t-39.5 13.5q-24 0 -38.5 -13.5t-15.5 -38.5h-19q1 32 21 51.5t52 19.5q27 0 46 -13.5t37 -27t39 -13.5q24 0 38.5 13t15.5 37h19q-1 -31 -21 -50t-52 -19zM387 754q-10 0 -18 8t-8 18
q0 11 8 18.5t18 7.5q11 0 18.5 -7.5t7.5 -18.5q0 -10 -7.5 -18t-18.5 -8zM223 754q-10 0 -18 8t-8 18q0 11 8 18.5t18 7.5q11 0 18.5 -7.5t7.5 -18.5q0 -10 -7.5 -18t-18.5 -8z" unicode="ṏ" glyph-name="uni1E4F"></glyph>
    <glyph d="M305 -3q-72 0 -128.5 33.5t-89.5 93t-33 135.5q0 77 33 135.5t89.5 92t128.5 33.5t129 -33.5t89.5 -92t32.5 -135.5q0 -76 -32.5 -135.5t-89.5 -93t-129 -33.5zM305 16q66 0 118.5 31t82.5 86t30 126q0 72 -30 126.5t-82.5 85t-118.5 30.5t-118 -30.5t-82.5 -85
t-30.5 -126.5q0 -71 30.5 -126t82.5 -86t118 -31zM366 622q-26 0 -45.5 13.5t-37 27t-39.5 13.5q-24 0 -38.5 -13.5t-15.5 -38.5h-19q1 32 21 51.5t52 19.5q27 0 46 -13.5t37 -27t39 -13.5q24 0 38.5 13t15.5 37h19q-1 -31 -21 -50t-52 -19zM169 750v20h272v-20h-272z" unicode="ȭ" glyph-name="uni022D"></glyph>
    <glyph d="M305 -3q-72 0 -128.5 33.5t-89.5 93t-33 135.5q0 77 33 135.5t89.5 92t128.5 33.5t128 -33.5t88.5 -92t32.5 -135.5q0 -76 -32.5 -135.5t-88.5 -93t-128 -33.5zM305 16q66 0 118.5 31t82.5 86t30 126q0 72 -30 126.5t-82.5 85t-118.5 30.5t-118 -30.5t-82.5 -85
t-30.5 -126.5q0 -71 30.5 -126t82.5 -86t118 -31zM795 -3q-74 0 -132.5 33.5t-91.5 93t-33 135.5q0 77 31 135.5t85 92t122 33.5t122.5 -32.5t86 -90.5t31.5 -133v-2v-3h-468v19h457l-8 -15q0 68 -29 122t-78.5 85t-113.5 31q-63 0 -113 -31t-78.5 -85t-28.5 -122v-4
q0 -71 31 -126t85.5 -86t122.5 -31q52 0 98.5 20t77.5 60l14 -14q-34 -42 -84 -63.5t-106 -21.5z" unicode="œ" glyph-name="oe"></glyph>
    <glyph d="M366 -3q-71 0 -127 33.5t-88.5 92.5t-32.5 135q0 77 32.5 136t88.5 92.5t127 33.5t128 -33.5t90 -92.5t33 -136q0 -76 -33 -135t-90 -92.5t-128 -33.5zM115 -194v711h20v-190l-10 -70l10 -70v-381h-20zM366 16q66 0 118.5 30.5t82.5 85.5t30 126q0 72 -30 126.5
t-82.5 85.5t-118.5 31t-118.5 -31t-82.5 -85.5t-30 -126.5q0 -71 30 -126t82.5 -85.5t118.5 -30.5z" unicode="p" glyph-name="p"></glyph>
    <glyph d="M366 -3q-71 0 -127 33.5t-88.5 92.5t-32.5 135q0 77 32.5 136t88.5 92.5t127 33.5t128 -33.5t90 -92.5t33 -136q0 -76 -33 -135t-90 -92.5t-128 -33.5zM115 -194v936h20v-415l-10 -70l10 -70v-381h-20zM366 16q66 0 118.5 30.5t82.5 85.5t30 126q0 72 -30 126.5
t-82.5 85.5t-118.5 31t-118.5 -31t-82.5 -85.5t-30 -126.5q0 -71 30 -126t82.5 -85.5t118.5 -30.5z" unicode="þ" glyph-name="thorn"></glyph>
    <glyph d="M305 -3q-71 0 -128 33.5t-90 92.5t-33 135q0 77 33 136t90 92.5t128 33.5t127 -33.5t88.5 -92.5t32.5 -136q0 -76 -32.5 -135t-88.5 -92.5t-127 -33.5zM305 16q66 0 118.5 30.5t82.5 85.5t30 126q0 72 -30 126.5t-82.5 85.5t-118.5 31t-118 -31t-82.5 -85.5t-30.5 -126.5
q0 -71 30.5 -126t82.5 -85.5t118 -30.5zM536 -194v381l10 70l-10 70v190h20v-711h-20z" unicode="q" glyph-name="q"></glyph>
    <glyph d="M115 0v517h20v-143l-2 3q21 68 73.5 105.5t131.5 37.5v-20h-2.5h-3.5q-93 0 -145 -59.5t-52 -162.5v-278h-20z" unicode="r" glyph-name="r"></glyph>
    <glyph d="M115 0v517h20v-143l-2 3q21 68 73.5 105.5t131.5 37.5v-20h-2.5h-3.5q-93 0 -145 -59.5t-52 -162.5v-278h-20zM182 607l140 110h40l-150 -110h-30z" unicode="ŕ" glyph-name="racute"></glyph>
    <glyph d="M115 0v517h20v-143l-2 3q21 68 73.5 105.5t131.5 37.5v-20h-2.5h-3.5q-93 0 -145 -59.5t-52 -162.5v-278h-20zM211 607l-122 110h27l114 -96h-6l114 96h27l-122 -110h-32z" unicode="ř" glyph-name="rcaron"></glyph>
    </font>
</defs>
</svg>
